Юные Титаны: Контракт Иуды / Teen Titans: The Judas Contract (2017) WEB-DLRip 720p | Flarrow Films

 
 Статистика раздачи 
Размер: 4.84 ГБ   |  Зарегистрирован: 16 сен 2018, 19:15   |   .torrent скачан: 0 раз
Сидеров: 1  [ 0 байт/сек ]     Личеров: 0  [ 0 байт/сек ]  
  

Юные Титаны: Контракт Иуды / Teen Titans: The Judas Contract (2017) WEB-DLRip 720p | Flarrow Films

Сообщение explosiveone » 16 сен 2018, 20:08

Информация о фильме
Название: Юные Титаны: Контракт Иуды
Оригинальное название: Teen Titans: The Judas Contract
Год выхода: 2017
Жанр: мультфильм, фантастика, фэнтези, боевик, драма, приключения
Режиссер: Сэм Лью
В ролях: Стюарт Аллан, Джейк Т. Остин, Таисса Фармига, Шон Маэр, Кристина Риччи, Брэндон Су Ху, Кари Уолгрен, Мигель Феррер, Грегг Генри, Мария Кэнелс-Баррера

О фильме:
История о столкновениях юных титанов со злейшим врагом Дэфстроуком, который славится своей беспощадностью и коварным нравом. Несмотря на то, что Дэфстроук уже получал на орехи от Дэмиена Уэйна, его это не останавливает. Он хочет взять реванш за прошлую неудачу, и для этого будет использовать все возможные средства.
Тем временем, в команде юных титанов пополнение, а именно — Терра, возможности и силы которой придутся героям как раз кстати. Девушка имеет власть над землей и камнем. С этими новыми способностями команда супергероев будет еще более эффективной, готовой вступить в бой в любой момент. Однако на деле героям придется нелегко.


Страна: США
Продолжительность: 01:24:14
Перевод: Любительский (многоголосый, закадровый) | Flarrow Films

Файл
Формат:MP4
Кодек: MPEG-4 AVC
Качество: WEB-DLRip 720p
Видео: 1280x720, 8 095 kb/s, 23.976 FPS
Звук: AAC, 128 kb/s, 2 channels, 48.0 kHz
Субтитры: отсутствуют
Сэмпл (яндекс.диск): скачать





General
Complete name : D:DownloadsMoviesTeen.Titans.The.Judas.Contract.WEBDLRip720p.Flarrow.Films.[free-tor].mp4
Format : MPEG-4
Format profile : Base Media
Codec ID : isom (isom)
File size : 4.84 GiB
Duration : 1 h 24 min
Overall bit rate mode : Variable
Overall bit rate : 8 226 kb/s
Encoded date : UTC 2017-04-18 05:13:52
Tagged date : UTC 2017-04-18 05:13:52
Writing application : Yamb 2.1.0.0 [http://yamb.unite-video.com]

Video
ID : 1
Format : AVC
Format/Info : Advanced Video Codec
Format profile : Baseline@L3.1
Format settings : 2 Ref Frames
Format settings, CABAC : No
Format settings, ReFrames : 2 frames
Codec ID : avc1
Codec ID/Info : Advanced Video Coding
Duration : 1 h 24 min
Bit rate : 8 095 kb/s
Maximum bit rate : 52.7 Mb/s
Width : 1 280 pixels
Height : 720 pixels
Display aspect ratio : 16:9
Frame rate mode : Constant
Frame rate : 23.976 (24000/1001) FPS
Standard : NTSC
Color space : YUV
Chroma subsampling : 4:2:0
Bit depth : 8 bits
Scan type : Progressive
Bits/(Pixel*Frame) : 0.366
Stream size : 4.76 GiB (98%)
Language : English
Encoded date : UTC 2017-04-17 12:28:54
Tagged date : UTC 2017-04-18 05:21:38
Color range : Limited
Codec configuration box : avcC

Audio
ID : 2
Format : AAC
Format/Info : Advanced Audio Codec
Format profile : LC
Codec ID : mp4a-40-2
Duration : 1 h 24 min
Bit rate mode : Variable
Bit rate : 128 kb/s
Maximum bit rate : 132 kb/s
Channel(s) : 2 channels
Channel positions : Front: L R
Sampling rate : 48.0 kHz
Frame rate : 46.875 FPS (1024 SPF)
Compression mode : Lossy
Stream size : 77.1 MiB (2%)
Language : English
Encoded date : UTC 2017-04-18 05:21:28
Tagged date : UTC 2017-04-18 05:21:38



Релиз от: Flarrow Films
Роли озвучивали: Денис Кузьмичёв, Рой Аллен, Дмитрий Савкин, Маргарита Корш, Александр Байсаров, Владимир Веретёнов, Максим Жидков, Снежанна Строева, Егор Резниченко.


 
Не забывайте говорить Спасибо. Не уходите с раздачи!   
Торрент: Зарегистрирован [16 сен 2018, 19:15] Для скачивания .torrent
необходима регистрация
Или скачать с помощью
MediaGet
Статус:
Проверен
 
.torrent скачан: 0 раз
Хэш: fb99f1b7b766559889e163109192b12d89890b9f
Размер: 4.84 ГБ (5 196 197 603 байт)
Стать Автором раздачи
 
 
Раздал: 100 ГБ
Скачал: 0 байт
Ратио: Seed.
Сообщения: 102051
Зарегистрирован: 09 апр 2015, 22:31


  • Похожие торренты
    Ответы
    Просмотры
    Последнее сообщение

Вернуться в Мультфильмы и мультсериалы

Ресурс не предоставляет электронные версии произведений, а занимается лишь коллекционированием и каталогизацией ссылок, присылаемых и публикуемых на форуме нашими читателями. Если вы являетесь правообладателем какого-либо представленного материала и не желаете чтобы ссылка на него находилась в нашем каталоге, свяжитесь с нами и мы незамедлительно удалим её. Файлы для обмена на трекере предоставлены пользователями сайта, и администрация не несёт ответственности за их содержание. Просьба не заливать файлы, защищенные авторскими правами, а также файлы нелегального содержания!
cron