Время танцора (1997) DVDRip-AVC от KORSAR

 
 Статистика раздачи 
Размер: 3.76 ГБ   |  Зарегистрирован: 16 сен 2018, 15:55   |   .torrent скачан: 0 раз
Сидеров: 1  [ 0 байт/сек ]     Личеров: 0  [ 0 байт/сек ]  
  

Время танцора (1997) DVDRip-AVC от KORSAR

Сообщение apple2000 » 16 сен 2018, 16:15

Информация о фильме
Название: Время танцора
Год выпуска: 1997
Жанр: Драма, военный
Режиссёр: Вадим Абдрашитов
В ролях: Андрей Егоров, Юрий Степанов, Сергей Гармаш, Чулпан Хаматова, Зураб Кипшидзе, Светлана Копылова, Вера Воронкова, Наталья Лоскутова, Сергей Никоненко, Михаил Богдасаров, Александр Кобзарь, Евгений Серов, Аршак Оганян, Дима Бондаренко, Вася Цыганов, Геннадий Андрианов, Юнона Карева, Ирина Токарчук

О фильме: События разворачиваются в одной из горячих точек нашей страны. Герои фильма вернулись с войны. Они победители и побежденные, потому что разучились жить в мире. Война позади, но она рядом и еще убивает. А им так страстно хочется жить. Но как?



Выпущено: Россия, Мосфильм, АРК-Фильм
Продолжительность: 02:37:03
Перевод: Не требуется

Файл
Качество: DVDRip-AVC
Видео: MPEG-4 AVC, 704x564@750x564, 2750 Кбит/с, 25.000 fps
Аудио 1: AC3, 6 ch, 448 Кбит/с
Аудио 2: AC3, 1 ch, 224 Кбит/с
Субтитры: Нет
Навигация по главам: Есть

Релиз от:

Главный приз Конкурс сценариев «Зеркало», посвященный столетию кинематографа (1996).
Призы Киноакадемии «Ника» за 1997 год в категориях «лучшая сценарная работа» (А.Миндадзе), «лучшая роль второго плана» (З.Кипшидзе).
Номинация на приз «Ника—97» в категориях «лучший игровой фильм», «лучшая режиссерская работа» (В.Абдрашитов), «лучшая женская роль» (Ч.Хаматова).
Премия «Золотой Овен» за 1997 год в категориях «лучший сценарий» (А.Миндадзе), «лучший фильм», премия «Надежда» (актеры В.Воронкова и А.Егоров).
Гран-при ОРКФ «Кинотавр—98» (Сочи).
Специальный приз жюри МКФ в Локарно—98.
Призы за лучшую мужскую роль второго плана (З.Кипшидзе) и многообещающий женский дебют (В.Воронкова) актерский МКФ «Балтийская жемчужина—98» (Рига).
[*]Приз ЮНЕСКО «За распространение идей культуры мира и толерантности» МКФ «Сталкер—98» (Москва).

x264 [info]: frame I:1301 Avg QP:16.96 size: 76447
x264 [info]: frame P:59984 Avg QP:18.69 size: 29834
x264 [info]: frame B:174296 Avg QP:21.62 size: 7746

======================================

Общее
Уникальный идентификатор : 175808728875696198244024617041437218237 (0x844387901B2F8BB5BBE31B38055955BD)
Полное имя : Время.танцора.1997.DVDRip-AVC.KORSAR.mkv
Формат : Matroska
Версия формата : Version 2
Размер файла : 3,76 Гбайт
Продолжительность : 2 ч. 37 м.
Общий поток : 3424 Кбит/сек
Дата кодирования : UTC 2017-05-27 23:59:19
Программа кодирования : mkvmerge v5.8.0 ('No Sleep / Pillow') built on Sep 2 2012 15:37:04
Библиотека кодирования : libebml v1.2.3 + libmatroska v1.3.0

Видео
Идентификатор : 1
Формат : AVC
Формат/Информация : Advanced Video Codec
Профиль формата : High@L4.1
Параметр CABAC формата : Да
Параметр ReFrames формата : 14 кадров
Идентификатор кодека : V_MPEG4/ISO/AVC
Продолжительность : 2 ч. 37 м.
Битрейт : 2750 Кбит/сек
Ширина : 704 пикселя
Высота : 564 пикселя
Соотношение сторон : 4:3
Соотношение сторон в оригинале : 4:3
Режим частоты кадров : Постоянный
Частота кадров : 25,000 кадров/сек
Цветовое пространство : YUV
Субдискретизация насыщенности : 4:2:0
Битовая глубина : 8 бит
Тип развёртки : Прогрессивная
Бит/(Пиксели*Кадры) : 0.277
Размер потока : 2,94 Гбайт (78%)
Заголовок : Время.танцора.1997.DVDRip-AVC.KORSAR
Библиотека кодирования : x264 core 148 r2744kMod b97ae06
Настройки программы : cabac=1 / ref=14 / deblock=1:-2:-1 / analyse=0x3:0x133 / me=umh / subme=10 / psy=1 / fade_compensate=0.00 / psy_rd=1.05:0.10 / mixed_ref=1 / me_range=36 / chroma_me=1 / trellis=2 / 8x8dct=1 / cqm=0 / deadzone=21,11 / fast_pskip=0 / chroma_qp_offset=-3 / threads=12 / lookahead_threads=2 / sliced_threads=0 / nr=0 / decimate=0 / interlaced=0 / bluray_compat=0 / constrained_intra=0 / bframes=9 / b_pyramid=2 / b_adapt=2 / b_bias=0 / direct=3 / weightb=1 / open_gop=0 / weightp=2 / keyint=250 / keyint_min=25 / scenecut=40 / intra_refresh=0 / rc=2pass / mbtree=0 / bitrate=2750 / ratetol=1.0 / qcomp=0.63 / qpmin=0 / qpmax=39 / qpstep=4 / cplxblur=20.0 / qblur=0.5 / ip_ratio=1.25 / pb_ratio=1.30 / aq=2:1.00
Язык : English
Default : Да
Forced : Нет
Цветовой диапазон : Limited
Основные цвета : BT.601 PAL
Характеристики трансфера : BT.470 System B, BT.470 System G
Коэффициенты матрицы : BT.601

Аудио #1
Идентификатор : 2
Формат : AC-3
Формат/Информация : Audio Coding 3
Расширение режима : CM
Параметр Endianness формата : Big
Идентификатор кодека : A_AC3
Продолжительность : 2 ч. 37 м.
Вид битрейта : Постоянный
Битрейт : 448 Кбит/сек
Каналы : 6 каналов
Расположение каналов : Front: L C R, Side: L R, LFE
Частота : 48,0 КГц
Частота кадров : 31,250 кадров/сек (1536 spf)
Битовая глубина : 16 бит
Метод сжатия : С потерями
Задержка видео : 406 мс.
Размер потока : 503 Мбайт (13%)
Язык : Russian
Default : Да
Forced : Нет

Аудио #2
Идентификатор : 3
Формат : AC-3
Формат/Информация : Audio Coding 3
Расширение режима : CM
Параметр Endianness формата : Big
Идентификатор кодека : A_AC3
Продолжительность : 2 ч. 37 м.
Вид битрейта : Постоянный
Битрейт : 224 Кбит/сек
Каналы : 1 канал
Расположение каналов : Front: C
Частота : 48,0 КГц
Частота кадров : 31,250 кадров/сек (1536 spf)
Битовая глубина : 16 бит
Метод сжатия : С потерями
Задержка видео : 408 мс.
Размер потока : 252 Мбайт (7%)
Язык : Russian
Default : Нет
Forced : Нет

Меню
00:00:00.000 : en:Chapter 1
00:05:53.120 : en:Chapter 2
00:10:04.880 : en:Chapter 3
00:21:36.360 : en:Chapter 4
00:30:22.480 : en:Chapter 5
00:34:39.880 : en:Chapter 6
00:43:45.880 : en:Chapter 7
00:54:47.240 : en:Chapter 8
01:08:07.800 : en:Chapter 9
01:16:05.120 : en:Chapter 10
01:28:09.200 : en:Chapter 11
01:36:10.720 : en:Chapter 12
01:48:59.160 : en:Chapter 13
01:53:28.960 : en:Chapter 14
02:06:36.040 : en:Chapter 15
02:15:48.240 : en:Chapter 16
02:22:53.520 : en:Chapter 17
02:28:27.280 : en:Chapter 18
02:37:00.680 : en:Chapter 19
 
Не забывайте говорить Спасибо. Не уходите с раздачи!   
Торрент: Зарегистрирован [16 сен 2018, 15:55] Скачать торрент
Скачать торрент
[ Размер 19.74 КБ / Просмотров 1 ]
Статус:
Проверен
 
.torrent скачан: 0 раз
Хэш: 5b1c5c7f1b75a8cb659bf63075419d1280af3219
Размер: 3.76 ГБ (4 032 582 915 байт)
Стать Автором раздачи
 
 
Раздал: 0 байт
Скачал: 0 байт
Ратио: Inf.
Сообщения: 42425
Зарегистрирован: 05 окт 2014, 15:23


  • Похожие торренты
    Ответы
    Просмотры
    Последнее сообщение

Вернуться в Отечественные фильмы 1992-2000 года

Ресурс не предоставляет электронные версии произведений, а занимается лишь коллекционированием и каталогизацией ссылок, присылаемых и публикуемых на форуме нашими читателями. Если вы являетесь правообладателем какого-либо представленного материала и не желаете чтобы ссылка на него находилась в нашем каталоге, свяжитесь с нами и мы незамедлительно удалим её. Файлы для обмена на трекере предоставлены пользователями сайта, и администрация не несёт ответственности за их содержание. Просьба не заливать файлы, защищенные авторскими правами, а также файлы нелегального содержания!
cron