Потерянное отражение: Исповедь содержанки (2017) WEB-DL 1080p | iTunes

 
 Статистика раздачи 
Размер: 3.58 ГБ   |  Зарегистрирован: 15 сен 2018, 23:36   |   .torrent скачан: 0 раз
Сидеров: 1  [ 0 байт/сек ]     Личеров: 0  [ 0 байт/сек ]  
  

Потерянное отражение: Исповедь содержанки (2017) WEB-DL 1080p | iTunes

Сообщение apple2000 » 16 сен 2018, 00:20

Информация о фильме
Название: Потерянное отражение: Исповедь содержанки
Год выхода: 2017
Жанр: Драма
Режиссер: Елена Жигаева
В ролях: Анна Чурина, Саша Летта, Владимир Топцов, Мария Атлас-Попова, Ольга Павловец, Ольга Лапшина, Дмитрий Ланчихин, Наталья Клюкина, Владимир Скворцов, Наталья Мишкина

О фильме:
Эта история сложилась из множества реальных рассказов о жизни тех, кто предпочел остаться за кадром. Юная, полная жизненной энергии провинциальная девушка отплясывает под «Мальчик мой». Она даже не подозревает, что вскоре, отправившись покорять столицу, встретит мужчину, чье появление оборвет восторженный полет ее души. И героиня превратится в ту, кого презрительно называют «содержанка». Пройдя нелегкий путь от светлых надежд до полной потери себя ради материальных благ, она должна найти силы вырваться из мучительной череды ожиданий, пустот и унизительных сцен. Но после стольких лет зависимости сможет ли она решиться на этот спасительный шаг?



Страна: Россия
Студия: Киношкола «Лестница», Кинокомпания «Магнум», Русская Фильм Группа
Продолжительность: 01:31:57
Перевод:
Не требуется | iTunes

Файл
Качество: WEB-DL 1080p
Формат: MKV
Кодек: MPEG-4 AVC
Видео: 1920x1040 (1,85:1), 24 fps, MPEG-4 AVC ~ 5195 kbps avg, 0.108 bit/pixel
Аудио: AC3, 48 kHz, 6 ch, ~384.00 kbps avg | русский | iTunes
Субтитры: Отсутствуют
Семпл
Общее
Уникальный идентификатор : 237458251062796881993704016751376567303 (0xB2A4CBAE2B66F5B1C0918852593D8C07)
Полное имя : ISPOVED_SODERZHANKI_2017_WEB-DL 1080p_KAZTORKA.mkv
Формат : Matroska
Версия формата : Version 4 / Version 2
Размер файла : 3,58 Гбайт
Продолжительность : 1 ч. 31 м.
Общий поток : 5581 Кбит/сек
Название фильма : Потерянное отражение: Исповедь содержанки (2017) reliz by KAZTORKA
Дата кодирования : UTC 2018-09-15 20:03:15
Программа кодирования : mkvmerge v20.0.0 ('I Am The Sun') 64-bit
Библиотека кодирования : libebml v1.3.5 + libmatroska v1.4.8
Видео
Идентификатор : 1
Формат : AVC
Формат/Информация : Advanced Video Codec
Профиль формата : High@L4
Настройки формата : CABAC / 4 Ref Frames
Параметр CABAC формата : Да
Параметр RefFrames формата : 4 кадра
Идентификатор кодека : V_MPEG4/ISO/AVC
Продолжительность : 1 ч. 31 м.
Битрейт : 5195 Кбит/сек
Ширина : 1920 пикселей
Высота : 1040 пикселей
Соотношение сторон : 1,85:1
Режим частоты кадров : Постоянный
Частота кадров : 24,000 кадра/сек
Цветовое пространство : YUV
Субдискретизация насыщенности : 4:2:0
Битовая глубина : 8 бит
Тип развёртки : Прогрессивная
Бит/(Пиксели*Кадры) : 0.108
Размер потока : 3,34 Гбайт (93%)
Заголовок : ISPOVED_SODERZHANKI_2017_WEB-DL 1080p_KAZTORKA
Язык : English
Default : Да
Forced : Нет
Цветовой диапазон : Limited
Основные цвета : BT.709
Характеристики трансфера : BT.709
Коэффициенты матрицы : BT.709
Аудио
Идентификатор : 2
Формат : AC-3
Формат/Информация : Audio Coding 3
Идентификатор кодека : A_AC3
Продолжительность : 1 ч. 31 м.
Вид битрейта : Постоянный
Битрейт : 384 Кбит/сек
Каналы : 6 каналов
Расположение каналов : Front: L C R, Side: L R, LFE
Частота : 48,0 КГц
Частота кадров : 31,250 кадров/сек (1536 SPF)
Битовая глубина : 16 бит
Метод сжатия : С потерями
Задержка видео : -42 мс.
Размер потока : 253 Мбайт (7%)
Заголовок : iTunes | ISPOVED_SODERZHANKI_2017_WEB-DL 1080p_KAZTORKA
Язык : Russian
Default : Да
Forced : Нет
Меню
00:00:00.000 : en:Глава 1
00:09:28.458 : en:Глава 2
00:15:22.916 : en:Глава 3
00:21:02.207 : en:Глава 4
00:27:41.707 : en:Глава 5
00:32:46.582 : en:Глава 6
00:37:39.915 : en:Глава 7
00:42:10.623 : en:Глава 8
00:46:31.373 : en:Глава 9
00:53:52.414 : en:Глава 10
00:58:51.580 : en:Глава 11
01:04:55.913 : en:Глава 12
01:11:14.454 : en:Глава 13
01:19:12.287 : en:Глава 14
01:26:20.745 : en:Глава 15

 
Не забывайте говорить Спасибо. Не уходите с раздачи!   
Торрент: Зарегистрирован [15 сен 2018, 23:36] Для скачивания .torrent
необходима регистрация
Или скачать с помощью
MediaGet
Статус:
Проверен
 
.torrent скачан: 0 раз
Хэш: 78ff5899c409183e29fd9f5bb2b727f85db4e719
Размер: 3.58 ГБ (3 848 718 376 байт)
Стать Автором раздачи
 
 
Раздал: 0 байт
Скачал: 0 байт
Ратио: Inf.
Сообщения: 37951
Зарегистрирован: 05 окт 2014, 15:23


  • Похожие торренты
    Ответы
    Просмотры
    Последнее сообщение

Вернуться в Отечественное кино

Ресурс не предоставляет электронные версии произведений, а занимается лишь коллекционированием и каталогизацией ссылок, присылаемых и публикуемых на форуме нашими читателями. Если вы являетесь правообладателем какого-либо представленного материала и не желаете чтобы ссылка на него находилась в нашем каталоге, свяжитесь с нами и мы незамедлительно удалим её. Файлы для обмена на трекере предоставлены пользователями сайта, и администрация не несёт ответственности за их содержание. Просьба не заливать файлы, защищенные авторскими правами, а также файлы нелегального содержания!
cron