Потерянное счастье (2018) HDTV 1080p от Generalfilm

 
 Статистика раздачи 
Размер: 4.54 ГБ   |  Зарегистрирован: 15 сен 2018, 21:42   |   .torrent скачан: 0 раз
Сидеров: 1  [ 0 байт/сек ]     Личеров: 0  [ 0 байт/сек ]  
  

Потерянное счастье (2018) HDTV 1080p от Generalfilm

Сообщение apple2000 » 15 сен 2018, 22:10

Информация о фильме
Название: Потерянное счастье
Год выпуска: 2018
Страна: Россия
Жанр: мелодрама

Перевод: Не требуется [Русский]
Продолжительность: 01:29:48

Режиссер: Глеб Якубовский
В ролях: Ксения Кузнецова (Валентина Бондаренко), Анжелика Маркелова, Алексей Фатеев, Мария Звонарева (Тамара), Светлана Тимофеева-Летуновская, Зоя Лирова, Виталия Корниенко, Игорь Климов, Павел Савинов (Антон), Наталья Панюшева (Татьяна, повариха)


Описание:
Валентина Бондаренко живет в маленьком шахтерском городке вместе с любимым мужем Михаилом, дочкой Лизой и матерью. Внезапно в шахте происходит взрыв метана, и Михаил погибает. Теперь Вале одной придется поднимать дочь, обеспечивать себя и мать. Подруга Тамара предлагает ей отправиться в Москву в поисках лучшей жизни. Валя уезжает в надежде, что через полгода перевезет в столицу родных...

Рейтинг:


Качество: HDTV 1080p
Формат: MKV
Видео: AVC, 1920x1080 (16:9), 7050 kbps, 25 fps, 0,136 bpp
Аудио: AC3 / 2.0 / 48 kHz / 192 kbps /

Релиз от:


General
Unique ID : 214496091561763507885590662498591642696 (0xA15E71CF4AE1D95A8522F11751471448)
Complete name : E:Запись с твPoteryannoe schaste.2018.HDTV 1080p.by.White Smoke.R.G.Generalfilm.mkv
Format : Matroska
Format version : Version 4 / Version 2
File size : 4.54 GiB
Duration : 1 h 29 min
Overall bit rate mode : Constant
Overall bit rate : 7 238 kb/s
Movie name : Poteryannoe schaste.2018.HDTV 1080p.by.White Smoke.R.G.Generalfilm.mkv
Encoded date : UTC 2018-09-15 17:41:51
Writing application : mkvmerge v6.8.0 ('Theme for Great Cities') 64bit built on Mar 2 2014 21:34:26
Writing library : libebml v1.3.0 + libmatroska v1.4.1
Cover : Yes
Attachments : cover.jpg

Video
ID : 1
Format : AVC
Format/Info : Advanced Video Codec
Format profile : High@L4.1
Format settings, CABAC : Yes
Format settings, ReFrames : 3 frames
Codec ID : V_MPEG4/ISO/AVC
Duration : 1 h 29 min
Bit rate mode : Constant
Bit rate : 7 051 kb/s
Width : 1 920 pixels
Height : 1 080 pixels
Display aspect ratio : 16:9
Frame rate mode : Constant
Frame rate : 25.000 FPS
Standard : PAL
Color space : YUV
Chroma subsampling : 4:2:0
Bit depth : 8 bits
Scan type : Progressive
Bits/(Pixel*Frame) : 0.136
Stream size : 4.33 GiB (95%)
Default : Yes
Forced : No
Color range : Limited
Color primaries : BT.709
Transfer characteristics : BT.709
Matrix coefficients : BT.709

Audio
ID : 2
Format : AC-3
Format/Info : Audio Coding 3
Mode extension : CM (complete main)
Format settings, Endianness : Big
Codec ID : A_AC3
Duration : 1 h 29 min
Bit rate mode : Constant
Bit rate : 192 kb/s
Channel(s) : 2 channels
Channel positions : Front: L R
Sampling rate : 48.0 kHz
Frame rate : 31.250 FPS (1536 spf)
Compression mode : Lossy
Stream size : 123 MiB (3%)
Default : Yes
Forced : No



 
Не забывайте говорить Спасибо. Не уходите с раздачи!   
Торрент: Зарегистрирован [15 сен 2018, 21:42] Для скачивания .torrent
необходима регистрация
Или скачать с помощью
MediaGet
Статус:
Проверен
 
.torrent скачан: 0 раз
Хэш: 0516166eb39eb9531e13d26e6c2c28813a64e693
Размер: 4.54 ГБ (4 874 614 941 байт)
Стать Автором раздачи
 
 
Раздал: 0 байт
Скачал: 0 байт
Ратио: Inf.
Сообщения: 37951
Зарегистрирован: 05 окт 2014, 15:23


  • Похожие торренты
    Ответы
    Просмотры
    Последнее сообщение

Вернуться в Отечественное кино

Ресурс не предоставляет электронные версии произведений, а занимается лишь коллекционированием и каталогизацией ссылок, присылаемых и публикуемых на форуме нашими читателями. Если вы являетесь правообладателем какого-либо представленного материала и не желаете чтобы ссылка на него находилась в нашем каталоге, свяжитесь с нами и мы незамедлительно удалим её. Файлы для обмена на трекере предоставлены пользователями сайта, и администрация не несёт ответственности за их содержание. Просьба не заливать файлы, защищенные авторскими правами, а также файлы нелегального содержания!
cron