Сайлент Хилл / Silent Hill (2006) WEB-DLRip-AVC от ExKinoRay | D | Open Matte

 
 Статистика раздачи 
Размер: 743.78 МБ   |  Зарегистрирован: 15 сен 2018, 21:28   |   .torrent скачан: 0 раз
Сидеров: 1  [ 0 байт/сек ]     Личеров: 0  [ 0 байт/сек ]  
  

Сайлент Хилл / Silent Hill (2006) WEB-DLRip-AVC от ExKinoRay | D | Open Matte

Сообщение Nasty » 15 сен 2018, 21:48

Информация о фильме
Название: Сайлент Хилл
Оригинальное название: Silent Hill
Год выхода: 2006
Жанр: Ужасы, детектив, приключения
Режиссер: Кристоф Ганс
В ролях: Рада Митчелл, Джоделль Ферланд, Лори Холден, Шон Бин, Дебора Кара Ангер, Ким Коутс, Таня Аллен, Элис Крайдж, Коллин Уильямс, Рон Гэбриел

О фильме :
Доктора не могут найти лекарство от таинственного заболевания Шэрон, но её мать Роуз отказывается отдавать ребёнка в психиатрическую лечебницу. Вместе с дочерью она отправляется в Сайлент Хилл — город, название которого Шэрон постоянно твердит во сне. Роуз убеждена, что именно здесь она найдёт ответы, в которых так нуждается.



Страна: Канада, Франция
Студия: Davis-Films, Konami Corporation Ltd. Silent Hill DCP Inc
Продолжительность: 02:05:28
Перевод: Профессиональный (полное дублирование)

Файл
Формат: MKV
Качество: WEB-DLRip-AVC
Видео: MPEG-4 AVC, 752x424, ~ 753 Кбит/с
Аудио: AAC-HE, 2 ch, ~ 76 Кбит/с
Субтитры: Русские, английские
Общее
Уникальный идентификатор : 185790955859342031000781121421436809047 (0x8BC60959EFEF114481AFA2DD96906F57)
Полное имя : D:MOVIESSilent.Hill.2006.ExKinoRay.mkv
Формат : Matroska
Версия формата : Version 4 / Version 2
Размер файла : 744 Мбайт
Продолжительность : 2 ч. 5 м.
Общий поток : 829 Кбит/сек
Дата кодирования : UTC 2018-09-15 18:12:45
Программа кодирования : mkvmerge v15.0.0 ('Duel with the Devil') 64-bit
Библиотека кодирования : libebml v1.3.5 + libmatroska v1.4.5

Видео
Идентификатор : 1
Формат : AVC
Формат/Информация : Advanced Video Codec
Профиль формата : High@L4.1
Параметр CABAC формата : Да
Параметр RefFrames формата : 12 кадров
Идентификатор кодека : V_MPEG4/ISO/AVC
Продолжительность : 2 ч. 5 м.
Битрейт : 753 Кбит/сек
Ширина : 752 пикселя
Высота : 424 пикселя
Соотношение сторон : 16:9
Режим частоты кадров : Постоянный
Частота кадров : 23,976 (24000/1001) кадра/сек
Цветовое пространство : YUV
Субдискретизация насыщенности : 4:2:0
Битовая глубина : 8 бит
Тип развёртки : Прогрессивная
Бит/(Пиксели*Кадры) : 0.098
Размер потока : 674 Мбайт (91%)
Библиотека кодирования : x264 core 152 r2851kMod ba24899
Настройки программы : cabac=1 / ref=12 / deblock=1:-3:-3 / analyse=0x3:0x133 / me=umh / subme=10 / psy=1 / fade_compensate=0.00 / psy_rd=1.00:0.15 / mixed_ref=1 / me_range=32 / chroma_me=1 / trellis=2 / 8x8dct=1 / cqm=0 / deadzone=21,11 / fast_pskip=0 / chroma_qp_offset=-3 / threads=6 / lookahead_threads=1 / sliced_threads=0 / nr=0 / decimate=0 / interlaced=0 / bluray_compat=0 / constrained_intra=0 / bframes=11 / b_pyramid=2 / b_adapt=2 / b_bias=0 / direct=3 / weightb=1 / open_gop=0 / weightp=2 / keyint=240 / keyint_min=23 / scenecut=40 / intra_refresh=0 / rc_lookahead=40 / rc=2pass / mbtree=1 / bitrate=753 / ratetol=1.0 / qcomp=0.60 / qpmin=0 / qpmax=69 / qpstep=4 / cplxblur=20.0 / qblur=0.5 / ip_ratio=1.40 / aq=3:1.00
Default : Да
Forced : Нет

Аудио
Идентификатор : 2
Формат : AAC
Формат/Информация : Advanced Audio Codec
Профиль формата : HE-AAC / LC
Идентификатор кодека : A_AAC
Продолжительность : 2 ч. 5 м.
Битрейт : 76,0 Кбит/сек
Каналы : 2 канала
Расположение каналов : Front: L R
Частота : 48,0 КГц / 24,0 КГц
Частота кадров : 23,438 кадра/сек (1024 SPF)
Метод сжатия : С потерями
Задержка видео : 31 мс.
Размер потока : 68,1 Мбайт (9%)
Default : Да
Forced : Нет

Текст #1
Идентификатор : 3
Формат : UTF-8
Идентификатор кодека : S_TEXT/UTF8
Идентификатор кодека/Информация : UTF-8 Plain Text
Продолжительность : 1 ч. 59 м.
Битрейт : 46 бит/сек
ElementCount : 914
Размер потока : 40,6 Кбайт (0%)
Заголовок : R5
Язык : Russian
Default : Нет
Forced : Нет

Текст #2
Идентификатор : 4
Формат : UTF-8
Идентификатор кодека : S_TEXT/UTF8
Идентификатор кодека/Информация : UTF-8 Plain Text
Продолжительность : 1 ч. 54 м.
Битрейт : 50 бит/сек
ElementCount : 929
Размер потока : 42,6 Кбайт (0%)
Заголовок : Tycoon
Язык : Russian
Default : Нет
Forced : Нет

Текст #3
Идентификатор : 5
Формат : UTF-8
Идентификатор кодека : S_TEXT/UTF8
Идентификатор кодека/Информация : UTF-8 Plain Text
Продолжительность : 1 ч. 54 м.
Битрейт : 31 бит/сек
ElementCount : 924
Размер потока : 26,6 Кбайт (0%)
Язык : English
Default : Нет
Forced : Нет

Текст #4
Идентификатор : 6
Формат : UTF-8
Идентификатор кодека : S_TEXT/UTF8
Идентификатор кодека/Информация : UTF-8 Plain Text
Продолжительность : 2 ч. 4 м.
Битрейт : 89 бит/сек
ElementCount : 2013
Размер потока : 81,9 Кбайт (0%)
Заголовок : Сommentary by director Christophe Gans
Язык : English
Default : Нет
Forced : Нет

Меню
00:00:00.000 : en:Studio Logos
00:00:23.000 : en:Rose and Chris Search for Sharon; Multiple Locations
00:03:11.000 : en:Title Sequence
00:03:21.000 : en:Rose Tells Sharon Where They Are Going; Under a Tree
00:05:52.000 : en:Chris Learns His Wife's Plans; Rose's Home
00:06:41.000 : en:Rose Struggles to Get Sharon to Silent Hill; Gas Station
00:10:30.000 : en:Cybil Tries to Intercept Rose; Road
00:13:02.000 : en:Rose Awakens in a Strange Place; Car and Highway
00:14:56.000 : en:Rose Chases after Sharon; Silent Hill
00:17:22.000 : en:Rose Searches for Sharon; Basement
00:21:32.000 : en:Rose Meets Dahlia at the Edge of Town; Silent Hill
00:24:42.000 : en:Chris Asks an Old Mechanic about Silent Hill; Gas Station
00:25:41.000 : en:Cybil Places Rose under Arrest; Fog World
00:28:50.000 : en:Chris Learns about Rose's Situation; Bridge
00:30:19.000 : en:Cybil Begins to Understand the Gravity of the Situation; Highway
00:33:20.000 : en:Rose Continues Her Search for the School; Silent Hill
00:34:25.000 : en:Rose Scrounges for Supplies; Midwhich Elementary
00:36:34.000 : en:Officer Gucci Calls out to Rose; Silent Hill
00:37:32.000 : en:Rose Flees from Three Masked Men; Midwhich Elementary
00:38:43.000 : en:Rose Finds Alessa's Defaced Desk; Midwhich Elementary
00:40:19.000 : en:Alessa Double Dares Rose; Midwhich Elementary
00:44:27.000 : en:Rose Recieves the Help She Prayed for; Midwhich Elementary
00:47:15.000 : en:Chris and Officer Gucci Search for Rose; Midwhich Elementary
00:47:27.000 : en:Rose Fleas from Pyramid Head; Midwhich Elementary
00:48:21.000 : en:Chris Feels Rose's Prescence; Midwhich Elementary
00:49:54.000 : en:Cybil Returns; Midwhich Elementary
00:53:44.000 : en:Rose and Cybil Decide on Their Goal; Midwhich Elementary
00:54:38.000 : en:Chris Begins to Question what Happened; Multiple Locations
00:55:41.000 : en:Rose and Cybil Find Anna and Dahlia; Grand Hotel
00:58:59.000 : en:Chris Searches the Silent Hill Records; Brahams Archives
01:01:15.000 : en:Rose Discovers the Secret of Room 111; Grand Hotel and Factory
01:07:56.000 : en:Rose and Cybil Race to the Church; Multiple Locations
01:11:14.000 : en:Rose and Cybil Find Themselves Less Than Welcome; Church
01:13:45.000 : en:Chris Confronts Sister Margaret about Sharon; Orphanage
01:15:38.000 : en:Officer Gucci Offers Chris the Truth; Orphanage
01:16:50.000 : en:Christabella Offers to Lead Rose and Cybil to Alessa; Church
01:19:21.000 : en:The Escort Falls Through; Hospital
01:23:50.000 : en:Rose Navigates the Twisted Hallways; Hospital
01:27:23.000 : en:Alessa Rewards Rose with the Truth; Multiple Locations
01:33:39.000 : en:Rose Makes a Deal with the Devil; Hospital
01:37:08.000 : en:Christabella Comes to Claim Sharon; Dahlia's Home
01:38:22.000 : en:Officer Gucci Gives Chris a Warning; Roadside
01:39:55.000 : en:Christabella Begins the Puriffication; Church
01:43:02.000 : en:Rose Returns to Save Sharon; Church
01:46:41.000 : en:Something Wicked This Way Comes; Church
01:52:01.000 : en:Mother Is God, in the Eyes of the Child; Church
01:53:08.000 : en:Rose and Sharon Return to Their Car; Road
01:54:32.000 : en:Rose and Sharon Finally Return Home; Multiple Locations
01:57:55.000 : en:End Credits


 
Не забывайте говорить Спасибо. Не уходите с раздачи!   
Торрент: Зарегистрирован [15 сен 2018, 21:28] Скачать торрент
Скачать торрент
[ Размер 15.57 КБ / Просмотров 2 ]
Статус:
Проверен
 
.torrent скачан: 0 раз
Хэш: 2df7be125ef002053badc875cc23257680dcec6a
Размер: 743.78 МБ (779 912 833 байт)
Стать Автором раздачи
 
 
Раздал: 100 ГБ
Скачал: 0 байт
Ратио: Seed.
Сообщения: 31241
Зарегистрирован: 09 апр 2015, 19:56


  • Похожие торренты
    Ответы
    Просмотры
    Последнее сообщение

Вернуться в Зарубежные фильмы 2006-2010 года

Ресурс не предоставляет электронные версии произведений, а занимается лишь коллекционированием и каталогизацией ссылок, присылаемых и публикуемых на форуме нашими читателями. Если вы являетесь правообладателем какого-либо представленного материала и не желаете чтобы ссылка на него находилась в нашем каталоге, свяжитесь с нами и мы незамедлительно удалим её. Файлы для обмена на трекере предоставлены пользователями сайта, и администрация не несёт ответственности за их содержание. Просьба не заливать файлы, защищенные авторскими правами, а также файлы нелегального содержания!
cron