Элитный отряд / Elite Squad / Tropa de Elite (2007) BDRemux 1080p от NNNB | P, P2, A

 
 Статистика раздачи 
Размер: 22.44 ГБ   |  Зарегистрирован: 15 сен 2018, 18:16   |   .torrent скачан: 0 раз
Сидеров: 1  [ 0 байт/сек ]     Личеров: 0  [ 0 байт/сек ]  
  

Элитный отряд / Elite Squad / Tropa de Elite (2007) BDRemux 1080p от NNNB | P, P2, A

Сообщение Nasty » 15 сен 2018, 19:03

Название: Элитный отряд
Оригинальное название: Tropa de Elite (Elite Squad)
Год выпуска: 2007
Жанр: Боевик, триллер, драма, криминал
Выпущено: Бразилия, Аргентина, США, Нидерланды, Costa Films, Estudios Mega, Feijao Filmes, Posto 9
Режиссер: Жозе Падилья
В ролях: Вагнер Моура, Андре Рамиро, Кайу Жункейра, Мильем Кортас, Фернанда Мачадо, Мария Рибейро, Паоло Вилела, Фернанда Де Фрейтас, Андре Фелипе, Фабио Лаго
Перевод: Профессиональный многоголосый, Профессиональный двухголосый, Авторский одноголосый

Сюжет фильма:
В 1997 году, перед визитом Папы Римского в Рио де-Жанейро, капитан Насцименто из БОПО (Батальона особых полицейских операций) получает задание устранить опасность, исходящую от наркоторговцев, действующих в опасных трущобах поблизости от резиденции Папы. Капитан Насцименто ищет человека, способного заменить его, так как жена капитана беременна, и он собирается оставить БОПО и стать наставником новобранцев. Тем временем, два друга-идеалиста Нето и Матиас начинают службу в военной полиции, рассчитывая стать честными полицейскими и бороться с криминалом. Однако они сталкиваются в военной полиции с коррупцией, недостатком профессионализма и бюрократическим идиотизмом. После серьёзного инцидента в Моро да Бабилония они решают вступить в ряды БОПО. Пути капитана Насцименто, Нето и Матиаса тесно переплетаются на протяжении нескольких месяцев, вначале в период жёстких тренировок, затем в операции против наркоторговцев. Насцименто верит, что Нето может заменить его, но импульсивная натура Нето затрудняет принятие решения. Позднее кандидатура интеллигентного Матиаса кажется корректным выбором, но Матиасу нужно доказать, что у него есть сердце...



Качество: BDRemux
Контейнер (Расширение): MKV
Видео: VC-1 Video / 19301 kbps / 1080p / 23,976 fps / 16:9
Аудио №1: русский / AC3 / 5.1 / 48 kHz / 384 kbps / |Профессиональный многоголосый, R5|
Аудио №2: русский / AC3 / 5.1 / 48 kHz / 448 kbps / |Профессиональный двухголосый, НТВ+|
Аудио №3: русский / DTS-HD MA / 5.1 / 48 kHz / 4420 kbps / 24-bit (DTS Core: 5.1 / 48 kHz / 1509 kbps / 24-bit) |Авторский одноголосый, Ю.Сербин|
Аудио №4: португальский / DTS-HD MA / 5.1 / 48 kHz / 3448 kbps / 24-bit (DTS Core: 5.1 / 48 kHz / 1509 kbps / 24-bit)
Навигация по главам (Чаптеры): есть
Субтитры: Русские, Английские
Продолжительность: 01:54:44

Релиз от: Сообщество:


Format : Matroska
Format version : Version 2
File size : 22.4 GiB
Duration : 1 h 54 min
Overall bit rate : 28.0 Mb/s
Movie name : Elite Squad.(2007).BDRemux.1080p.[denis100]
Encoded date : UTC 2018-09-13 13:54:56
Writing application : mkvmerge v5.8.0 ('No Sleep / Pillow') built on Sep 2 2012 15:37:04
Writing library : libebml v1.2.3 + libmatroska v1.3.0

Video
ID : 1
Format : VC-1
Format profile : Advanced@L3
Codec ID : V_MS/VFW/FOURCC / WVC1
Codec ID/Hint : Microsoft
Duration : 1 h 54 min
Width : 1 920 pixels
Height : 1 080 pixels
Display aspect ratio : 16:9
Frame rate mode : Constant
Frame rate : 23.976 (24000/1001) FPS
Color space : YUV
Chroma subsampling : 4:2:0
Bit depth : 8 bits
Scan type : Progressive
Compression mode : Lossy
Title : Elite Squad.(2007).BDRemux.1080p.[denis100]
Language : English
Default : No
Forced : No

Audio #1
ID : 2
Format : AC-3
Format/Info : Audio Coding 3
Codec ID : A_AC3
Duration : 1 h 54 min
Bit rate mode : Constant
Bit rate : 384 kb/s
Channel(s) : 6 channels
Channel positions : Front: L C R, Side: L R, LFE
Sampling rate : 48.0 kHz
Frame rate : 31.250 FPS (1536 SPF)
Bit depth : 16 bits
Compression mode : Lossy
Stream size : 315 MiB (1%)
Title : MVO, R5
Language : Russian
Service kind : Complete Main
Default : Yes
Forced : No

Audio #2
ID : 3
Format : AC-3
Format/Info : Audio Coding 3
Codec ID : A_AC3
Duration : 1 h 54 min
Bit rate mode : Constant
Bit rate : 448 kb/s
Channel(s) : 6 channels
Channel positions : Front: L C R, Side: L R, LFE
Sampling rate : 48.0 kHz
Frame rate : 31.250 FPS (1536 SPF)
Bit depth : 16 bits
Compression mode : Lossy
Stream size : 368 MiB (2%)
Title : DVO, НТВ+
Language : Russian
Service kind : Complete Main
Default : No
Forced : No

Audio #3
ID : 4
Format : DTS
Format/Info : Digital Theater Systems
Format profile : MA / Core
Codec ID : A_DTS
Duration : 1 h 54 min
Bit rate mode : Variable / Constant
Bit rate : Unknown / 1 509 kb/s
Channel(s) : 6 channels
Channel positions : Front: L C R, Side: L R, LFE
Sampling rate : 48.0 kHz
Frame rate : 93.750 FPS (512 SPF)
Bit depth : 24 bits
Compression mode : Lossless / Lossy
Title : AVO, Ю.Сербин
Language : Russian
Default : No
Forced : No

Audio #4
ID : 5
Format : DTS
Format/Info : Digital Theater Systems
Format profile : MA / Core
Codec ID : A_DTS
Duration : 1 h 54 min
Bit rate mode : Variable / Constant
Bit rate : Unknown / 1 509 kb/s
Channel(s) : 6 channels
Channel positions : Front: L C R, Side: L R, LFE
Sampling rate : 48.0 kHz
Frame rate : 93.750 FPS (512 SPF)
Bit depth : 24 bits
Compression mode : Lossless / Lossy
Language : Portuguese
Default : No
Forced : No

Text #1
ID : 6
Format : UTF-8
Codec ID : S_TEXT/UTF8
Codec ID/Info : UTF-8 Plain Text
Language : Russian
Default : No
Forced : No

Text #2
ID : 7
Format : UTF-8
Codec ID : S_TEXT/UTF8
Codec ID/Info : UTF-8 Plain Text
Language : English
Default : No
Forced : No

Menu
00:00:00.000 : en:Chapter 01
00:11:46.642 : en:Chapter 02
00:24:03.128 : en:Chapter 03
00:37:39.610 : en:Chapter 04
00:52:08.228 : en:Chapter 05
01:07:41.911 : en:Chapter 06
01:21:57.432 : en:Chapter 07
01:36:44.401 : en:Chapter 08
 
Не забывайте говорить Спасибо. Не уходите с раздачи!   
Торрент: Зарегистрирован [15 сен 2018, 18:16] Скачать торрент
Скачать торрент
[ Размер 113.14 КБ / Просмотров 3 ]
Статус:
Проверен
 
.torrent скачан: 0 раз
Хэш: 7d7a6fd5b4565fa3a511ff1e2f06df04dc140ce4
Размер: 22.44 ГБ (24 093 881 130 байт)
Стать Автором раздачи
 
 
Раздал: 100 ГБ
Скачал: 0 байт
Ратио: Seed.
Сообщения: 30807
Зарегистрирован: 09 апр 2015, 19:56


  • Похожие торренты
    Ответы
    Просмотры
    Последнее сообщение

Вернуться в Зарубежные фильмы 2006-2010 года

Ресурс не предоставляет электронные версии произведений, а занимается лишь коллекционированием и каталогизацией ссылок, присылаемых и публикуемых на форуме нашими читателями. Если вы являетесь правообладателем какого-либо представленного материала и не желаете чтобы ссылка на него находилась в нашем каталоге, свяжитесь с нами и мы незамедлительно удалим её. Файлы для обмена на трекере предоставлены пользователями сайта, и администрация не несёт ответственности за их содержание. Просьба не заливать файлы, защищенные авторскими правами, а также файлы нелегального содержания!
cron