Наша улица (1961) WEB-DLRip от New-Team

 
 Статистика раздачи 
Размер: 1.09 ГБ   |  Зарегистрирован: 15 сен 2018, 10:58   |   .torrent скачан: 0 раз
Сидеров: 1  [ 0 байт/сек ]     Личеров: 0  [ 0 байт/сек ]  
  

Наша улица (1961) WEB-DLRip от New-Team

Сообщение apple2000 » 15 сен 2018, 11:19

Страна: СССР
Производство: Азербайджанфильм

Жанр: драма
Год выпуска: 1961
Продолжительность: 00:24:27

Перевод: Не требуется
Cубтитры: нет
Оригинальная аудиодорожка: русский

Режиссер: Али Саттар Атакишиев

В ролях:
Римма Мамедова, Атая Алиева, Агададаш Курбанов, Гюндуз Аббасов, Гиули Чохонелидзе, Сона Асланова, Николай Бармин, Николай Волков (старший), Юрий Аверин, Дмитрий Орлов, Мовсун Санани, Осман Хакки, Бахадур Алиев, Мелик Дадашев, Талят Рахманов, Нодар Шашик-оглы, Юсиф Юлдус, А. Анатоллы, Гафар Хакки, Акбар Фарзалиев, Лев Грубер, Ахмед Ахмедов...
Об актёрах подробней

Описание:
Радостно обживают новый дом в Баку новосёлы. Среди них - инженеры Расим и Муса, токарь Фуад (Гиули Чохонелидзе), семья нефтяника Барышева, врач Бахрам, одинокая тетушка Бегим. Однажды на экране телевизора, в кинохронике войны, тетушка Бегим узнаёт свою дочь Сару, которую она считала погибшей. Все новосёлы начинают поиски Сары. Фуад посылает телеграмму в село, где тетушка Бегим потеряла Сару, и узнаёт, что всё население было угнано фашистами. Муса вспоминает, что о девочке-бакинке ему рассказывал легендарный партизан Мехти, встретивший её в фашистском тылу - в Триесте...





Исходник: WEB-DL 576i
Качество видео: WEB-DLRip
Формат видео: AVI

Видео: 704x496 (1,419:1), 25,000 кадров/сек, XviD ~ 1646 kbps avg, 0.189 bit/pixel
Аудио: 48 kHz, Dolby Digital AC3 2.0, 192 kbps

Раздача от:
Общее
Полное имя : Nasha.ulica.1961.WEB-DLRip_[New-team]_by_AVP_Studio.avi
Формат : AVI
Формат/Информация : Audio Video Interleave
Размер файла : 1,09 Гбайт
Продолжительность : 1 ч. 24 м.
Общий поток : 1847 Кбит/сек
Программа кодирования : VirtualDubMod 1.5.10.3 | www.virtualdub-fr.org || (build 2550/release)
Библиотека кодирования : VirtualDubMod build 2550/release

Видео
Идентификатор : 0
Формат : MPEG-4 Visual
Профиль формата : Advanced Simple@L5
Настройки формата : BVOP1 / Custom Matrix
Параметр BVOP формата : 1
Параметр QPel формата : Нет
Параметр GMC формата : Без точки перехода
Параметр матрицы формата : Выборочная
Идентификатор кодека : XVID
Идентификатор кодека/Подсказка : XviD
Продолжительность : 1 ч. 24 м.
Битрейт : 1646 Кбит/сек
Ширина : 704 пикселя
Высота : 496 пикселей
Соотношение сторон : 1,419
Частота кадров : 25,000 кадров/сек
Цветовое пространство : YUV
Субдискретизация насыщенности : 4:2:0
Битовая глубина : 8 бит
Тип развёртки : Прогрессивная
Метод сжатия : С потерями
Бит/(Пиксели*Кадры) : 0.189
Размер потока : 994 Мбайт (89%)
Библиотека кодирования : XviD 73

Аудио
Идентификатор : 1
Формат : AC-3
Формат/Информация : Audio Coding 3
Коммерческое название : Dolby Digital
Идентификатор кодека : 2000
Продолжительность : 1 ч. 24 м.
Вид битрейта : Постоянный
Битрейт : 192 Кбит/сек
Каналы : 2 канала
Channel layout : L R
Частота : 48,0 КГц
Частота кадров : 31,250 кадров/сек (1536 SPF)
Битовая глубина : 16 бит
Метод сжатия : С потерями
Размер потока : 116 Мбайт (10%)
Выравнивание : Разделение по промежуткам
Продолжительность промежутка : 40 мс. (1,00 видеокадр)
Время предзагрузки промежутка : 500 мс


 
Не забывайте говорить Спасибо. Не уходите с раздачи!   
Торрент: Зарегистрирован [15 сен 2018, 10:58] Для скачивания .torrent
необходима регистрация
Или скачать с помощью
MediaGet
Статус:
Проверен
 
.torrent скачан: 0 раз
Хэш: c4e44189dd6fe26fee9c0c4261455395dbe7c1e4
Размер: 1.09 ГБ (1 170 186 240 байт)
Стать Автором раздачи
 
 
Раздал: 0 байт
Скачал: 0 байт
Ратио: Inf.
Сообщения: 37951
Зарегистрирован: 05 окт 2014, 15:23


  • Похожие торренты
    Ответы
    Просмотры
    Последнее сообщение

Вернуться в Кино СССР, Советской России, Российской республики (1917-1991)

Ресурс не предоставляет электронные версии произведений, а занимается лишь коллекционированием и каталогизацией ссылок, присылаемых и публикуемых на форуме нашими читателями. Если вы являетесь правообладателем какого-либо представленного материала и не желаете чтобы ссылка на него находилась в нашем каталоге, свяжитесь с нами и мы незамедлительно удалим её. Файлы для обмена на трекере предоставлены пользователями сайта, и администрация не несёт ответственности за их содержание. Просьба не заливать файлы, защищенные авторскими правами, а также файлы нелегального содержания!
cron