Планета бурь (1961) DVDRip-AVC от New-Team

 
 Статистика раздачи 
Размер: 1.09 ГБ   |  Зарегистрирован: 13 сен 2018, 11:59   |   .torrent скачан: 0 раз
Сидеров: 1  [ 0 байт/сек ]     Личеров: 0  [ 0 байт/сек ]  
  

Планета бурь (1961) DVDRip-AVC от New-Team

Сообщение apple2000 » 13 сен 2018, 12:18

Страна: СССР
Производство: Ленинградская киностудия научно-популярных фильмов

Жанр: фантастика, приключения
Год выпуска: 1961
Продолжительность: 01:18:33

Перевод: Не требуется
Cубтитры: нет
Оригинальная аудиодорожка: русский

Режиссер: Павел Клушанцев

В ролях:
Владимир Емельянов, Геннадий Вернов, Георгий Жжёнов, Кюнна Игнатова, Юрий Саранцев, Георгий Тейх...
Об актёрах подробней

Описание:
На планету Венера отправляется первая советская космическая экспедиция из трех кораблей. При подходе к Венере один из кораблей гибнет. Экипажи двух других кораблей, среди которых находятся иностранец и робот "железный Джон", благополучно совершают посадку. Две группы движутся по направлению друг к другу. При этом на орбите остается один корабль с космонавтом на борту. Прежде чем герои найдут друг друга и улетят на Землю, их застигнет извержение вулкана, они погрузятся на морское дно, встретят неведомых животных и достойно перенесут все экстремальные ситуации.






Источник: DVD9 R5
Качество видео: DVDRip-AVC
Формат видео: MKV

Видео: 688->761х572 (4:3), 25 fps, H264 ~ 1535 kbps avg, 0.155 bit/pixel
Аудио: 48 kHz, Dolby Digital AC3 5.1, 448 kbps

Раздача от:
Общее
Полное имя : Planeta.bur.1961.DVDRip-AVC_[New-team]_by_AVP_Studio.mkv
Формат : Matroska
Версия формата : Version 2
Размер файла : 1,09 Гбайт
Продолжительность : 1 ч. 18 м.
Общий поток : 1985 Кбит/сек
Дата кодирования : UTC 2018-09-10 13:16:16
Программа кодирования : mkvmerge v6.1.0 ('Old Devil') built on Mar 4 2013 09:10:42
Библиотека кодирования : libebml v1.3.0 + libmatroska v1.4.0

Видео
Идентификатор : 1
Формат : AVC
Формат/Информация : Advanced Video Codec
Профиль формата : High@L4.1
Настройки формата : CABAC / 10 Ref Frames
Параметр CABAC формата : Да
Параметр RefFrames формата : 10 кадров
Идентификатор кодека : V_MPEG4/ISO/AVC
Продолжительность : 1 ч. 18 м.
Битрейт : 1535 Кбит/сек
Ширина : 692 пикселя
Высота : 572 пикселя
Соотношение сторон : 4:3
Режим частоты кадров : Постоянный
Частота кадров : 25,000 кадров/сек
Цветовое пространство : YUV
Субдискретизация насыщенности : 4:2:0
Битовая глубина : 8 бит
Тип развёртки : Прогрессивная
Бит/(Пиксели*Кадры) : 0.155
Размер потока : 841 Мбайт (75%)
Библиотека кодирования : x264 core 157 r2932 303c484
Настройки программы : cabac=1 / ref=10 / deblock=1:-2:-1 / analyse=0x3:0x113 / me=umh / subme=10 / psy=1 / psy_rd=1.00:0.00 / mixed_ref=1 / me_range=32 / chroma_me=1 / trellis=2 / 8x8dct=1 / cqm=0 / deadzone=21,11 / fast_pskip=1 / chroma_qp_offset=-2 / threads=6 / lookahead_threads=1 / sliced_threads=0 / nr=0 / decimate=0 / interlaced=0 / bluray_compat=0 / constrained_intra=0 / bframes=8 / b_pyramid=2 / b_adapt=2 / b_bias=0 / direct=3 / weightb=1 / open_gop=0 / weightp=2 / keyint=250 / keyint_min=25 / scenecut=40 / intra_refresh=0 / rc=2pass / mbtree=0 / bitrate=1535 / ratetol=1.0 / qcomp=0.60 / qpmin=0 / qpmax=69 / qpstep=4 / cplxblur=20.0 / qblur=0.5 / ip_ratio=1.40 / pb_ratio=1.30 / aq=1:1.00
Default : Да
Forced : Нет

Аудио
Идентификатор : 2
Формат : AC-3
Формат/Информация : Audio Coding 3
Коммерческое название : Dolby Digital
Идентификатор кодека : A_AC3
Продолжительность : 1 ч. 18 м.
Вид битрейта : Постоянный
Битрейт : 448 Кбит/сек
Каналы : 6 каналов
Channel layout : L R C LFE Ls Rs
Частота : 48,0 КГц
Частота кадров : 31,250 кадров/сек (1536 SPF)
Битовая глубина : 16 бит
Метод сжатия : С потерями
Размер потока : 252 Мбайт (23%)
Default : Да
Forced : Нет


 
Не забывайте говорить Спасибо. Не уходите с раздачи!   
Торрент: Зарегистрирован [13 сен 2018, 11:59] Скачать торрент
Скачать торрент
[ Размер 12.24 КБ / Просмотров 4 ]
Статус:
Проверен
 
.torrent скачан: 0 раз
Хэш: 801b76029e37e3ae73db486083a7f6e16e60cf03
Размер: 1.09 ГБ (1 169 131 821 байт)
Стать Автором раздачи
 
 
Раздал: 0 байт
Скачал: 0 байт
Ратио: Inf.
Сообщения: 42425
Зарегистрирован: 05 окт 2014, 15:23


  • Похожие торренты
    Ответы
    Просмотры
    Последнее сообщение

Вернуться в Кино СССР, Советской России, Российской республики (1917-1991)

Ресурс не предоставляет электронные версии произведений, а занимается лишь коллекционированием и каталогизацией ссылок, присылаемых и публикуемых на форуме нашими читателями. Если вы являетесь правообладателем какого-либо представленного материала и не желаете чтобы ссылка на него находилась в нашем каталоге, свяжитесь с нами и мы незамедлительно удалим её. Файлы для обмена на трекере предоставлены пользователями сайта, и администрация не несёт ответственности за их содержание. Просьба не заливать файлы, защищенные авторскими правами, а также файлы нелегального содержания!
cron