Медовый месяц Камиллы / Camille (2007) BDRip 1080p | D

 
 Статистика раздачи 
Размер: 7.22 ГБ   |  Зарегистрирован: 13 сен 2018, 07:20   |   .torrent скачан: 0 раз
Сидеров: 1  [ 0 байт/сек ]     Личеров: 0  [ 0 байт/сек ]  
  

Медовый месяц Камиллы / Camille (2007) BDRip 1080p | D

Сообщение Nasty » 13 сен 2018, 07:51




Информация о фильме
Название: Медовый месяц Камиллы
Оригинальное название: Camille
Год выхода: 2007
Жанр: Комедия, мелодрама, драма, приключения
Режиссер: Грегори МакКензи

В ролях: Сиенна Миллер, Джеймс Франко, Дэвид Кэрредин, Скотт Гленн, Эд Лотер, Марк Уилсон, Патриция Йетмен, Стив Маркофф, Тайлер Хайнс, Мими Кузык, Джеймс Б. Дуглас, Джордж Бьюза, Лииса Репо-Мартелл, Николас Каеги, Дж. Адам Браун, Шаррон Мэтьюз, Паула Бодро, Билл Лэйк, Моника Доттер, Лоурен Эш, Пол Бейтс, Шеннон МакДонаф, Джефф МакИнери, Майк Шир, Джон Уотсон, Мэтт Смит, Сэнди Джобин-Биванс, Эйвери Бисби, Александра Радди

О фильме:
Что может быть романтичнее медового месяца на Ниагаре? Но для Силиаса и Камиллы это будет необычное путешествие. Силиас — мелкий мошенник, он женится на племяннице шерифа, только чтобы не попасть в тюрьму. Но влюбленная Камилла верит, что ее чувства изменят избранника. И ничто не помешает сбыться ее мечте о медовом месяце, даже собственная смерть…



Страна: Великобритания, A-Mark Entertainment
Продолжительность: 01:30:58
Перевод: Дублированный

Файл
Кодек: x264
Качество: BDRip 1080p
Формат: Matroska
Видео: AVC; 1920x1080 (16/9); 10.5 Mb/s; 23,976 fps; 0.211 bpp
Аудио №1: Russian; AC3; 448 Kbps; CBR; 48 kHz; 6 ch
Аудио №2: English; AC3; 448 Kbps; CBR; 48 kHz; 6 ch
Субтитры: Русские, Английские


x264 info: frame I:999 Avg QP:17.92 size:185240
x264 info: frame P:30641 Avg QP:19.11 size: 97165
x264 info: frame B:99245 Avg QP:20.87 size: 39139
x264 info: consecutive B-frames: 2.7% 4.7% 8.1% 37.1% 9.2% 11.2% 5.1% 20.9% 1.0%

General
Unique ID : 323695433628509389631309747659749373491 (0xF385790C9C084F82C36A20C65AFAB633)
Complete name : G:Видео_1Медовый месяц Камиллы_2007_BLU-RAY_1080p_.x264_RUS_ENG_[-=DoMiNo=-].mkv
Format : Matroska
Format version : Version 4
File size : 7.22 GiB
Duration : 1 h 30 min
Overall bit rate : 11.4 Mb/s
Movie name : Медовый месяц Камиллы / Camille [2007]
Encoded date : UTC 2018-09-13 03:57:06
Writing application : mkvmerge v25.0.0 ('Prog Noir') 64-bit
Writing library : libebml v1.3.6 + libmatroska v1.4.9
Attachments : poster.jpg

Video
ID : 1
Format : AVC
Format/Info : Advanced Video Codec
Format profile : High@L4.1
Format settings : CABAC / 4 Ref Frames
Format settings, CABAC : Yes
Format settings, ReFrames : 4 frames
Codec ID : V_MPEG4/ISO/AVC
Duration : 1 h 30 min
Bit rate : 10.5 Mb/s
Width : 1 920 pixels
Height : 1 080 pixels
Display aspect ratio : 16:9
Frame rate mode : Constant
Frame rate : 23.976 (24000/1001) FPS
Color space : YUV
Chroma subsampling : 4:2:0
Bit depth : 8 bits
Scan type : Progressive
Bits/(Pixel*Frame) : 0.211
Stream size : 6.65 GiB (92%)
Title : BLU-RAY_1080p_RIP_BY_-=DoMiNo=-
Writing library : x264 core 155 r2901M 7d0ff22
Encoding settings : cabac=1 / ref=4 / deblock=1:-3:-3 / analyse=0x3:0x113 / me=umh / subme=11 / psy=1 / psy_rd=1.05:0.15 / mixed_ref=1 / me_range=32 / chroma_me=1 / trellis=2 / 8x8dct=1 / cqm=0 / deadzone=21,11 / fast_pskip=0 / chroma_qp_offset=-3 / threads=5 / lookahead_threads=1 / sliced_threads=0 / nr=0 / decimate=1 / interlaced=0 / bluray_compat=0 / constrained_intra=0 / bframes=8 / b_pyramid=2 / b_adapt=2 / b_bias=0 / direct=3 / weightb=1 / open_gop=0 / weightp=2 / keyint=240 / keyint_min=24 / scenecut=40 / intra_refresh=0 / rc_lookahead=80 / rc=2pass / mbtree=0 / bitrate=10480 / ratetol=1.0 / qcomp=0.70 / qpmin=0 / qpmax=69 / qpstep=4 / cplxblur=20.0 / qblur=0.5 / vbv_maxrate=50000 / vbv_bufsize=62500 / nal_hrd=none / filler=0 / ip_ratio=1.40 / pb_ratio=1.30 / aq=3:0.90
Language : English
Default : Yes
Forced : No
Color range : Limited
Color primaries : BT.709
Transfer characteristics : BT.709
Matrix coefficients : BT.709

Audio #1
ID : 2
Format : AC-3
Format/Info : Audio Coding 3
Commercial name : Dolby Digital
Codec ID : A_AC3
Duration : 1 h 30 min
Bit rate mode : Constant
Bit rate : 448 kb/s
Channel(s) : 6 channels
Channel layout : L R C LFE Ls Rs
Sampling rate : 48.0 kHz
Frame rate : 31.250 FPS (1536 SPF)
Bit depth : 16 bits
Compression mode : Lossy
Stream size : 292 MiB (4%)
Title : DUB_RUS
Language : Russian
Service kind : Complete Main
Default : Yes
Forced : No

Audio #2
ID : 3
Format : AC-3
Format/Info : Audio Coding 3
Commercial name : Dolby Digital
Codec ID : A_AC3
Duration : 1 h 30 min
Bit rate mode : Constant
Bit rate : 448 kb/s
Channel(s) : 6 channels
Channel layout : L R C LFE Ls Rs
Sampling rate : 48.0 kHz
Frame rate : 31.250 FPS (1536 SPF)
Bit depth : 16 bits
Compression mode : Lossy
Stream size : 292 MiB (4%)
Title : ENG
Language : English
Service kind : Complete Main
Default : No
Forced : No

Text #1
ID : 4
Format : UTF-8
Codec ID : S_TEXT/UTF8
Codec ID/Info : UTF-8 Plain Text
Duration : 1 h 23 min
Bit rate : 65 b/s
Count of elements : 1046
Stream size : 40.1 KiB (0%)
Title : RUS
Language : Russian
Default : No
Forced : No

Text #2
ID : 5
Format : UTF-8
Codec ID : S_TEXT/UTF8
Codec ID/Info : UTF-8 Plain Text
Duration : 1 h 23 min
Bit rate : 43 b/s
Count of elements : 938
Stream size : 26.5 KiB (0%)
Title : ENG
Language : English
Default : No
Forced : No

Text #3
ID : 6
Format : UTF-8
Codec ID : S_TEXT/UTF8
Codec ID/Info : UTF-8 Plain Text
Duration : 1 h 23 min
Bit rate : 48 b/s
Count of elements : 1022
Stream size : 29.4 KiB (0%)
Title : SDH_ENG
Language : English
Default : No
Forced : No

Menu
00:00:00.000 : :Глава 01
00:07:06.550 : :Глава 02
00:11:15.174 : :Глава 03
00:19:09.606 : :Глава 04
00:24:47.694 : :Глава 05
00:31:34.100 : :Глава 06
00:36:54.962 : :Глава 07
00:43:28.397 : :Глава 08
00:46:33.957 : :Глава 09
00:51:37.719 : :Глава 10
00:56:39.187 : :Глава 11
01:01:00.406 : :Глава 12
01:06:33.572 : :Глава 13
01:13:19.686 : :Глава 14
01:20:53.557 : :Глава 15
01:27:07.889 : :Глава 16
01:30:58.953 : :Глава 17


 
Не забывайте говорить Спасибо. Не уходите с раздачи!   
Торрент: Зарегистрирован [13 сен 2018, 07:20] Скачать торрент
Скачать торрент
[ Размер 19.82 КБ / Просмотров 3 ]
Статус:
Проверен
 
.torrent скачан: 0 раз
Хэш: 731e4b2e9d0c68c74275529fcef777065a547b9c
Размер: 7.22 ГБ (7 756 624 655 байт)
Стать Автором раздачи
 
 
Раздал: 100 ГБ
Скачал: 0 байт
Ратио: Seed.
Сообщения: 31238
Зарегистрирован: 09 апр 2015, 19:56


  • Похожие торренты
    Ответы
    Просмотры
    Последнее сообщение

Вернуться в Зарубежные фильмы 2006-2010 года

Ресурс не предоставляет электронные версии произведений, а занимается лишь коллекционированием и каталогизацией ссылок, присылаемых и публикуемых на форуме нашими читателями. Если вы являетесь правообладателем какого-либо представленного материала и не желаете чтобы ссылка на него находилась в нашем каталоге, свяжитесь с нами и мы незамедлительно удалим её. Файлы для обмена на трекере предоставлены пользователями сайта, и администрация не несёт ответственности за их содержание. Просьба не заливать файлы, защищенные авторскими правами, а также файлы нелегального содержания!
cron