Медовый месяц Камиллы / Camille (2007) BDRip-AVC от New-Team | D

 
 Статистика раздачи 
Размер: 2.89 ГБ   |  Зарегистрирован: 11 сен 2018, 18:37   |   .torrent скачан: 0 раз
Сидеров: 1  [ 0 байт/сек ]     Личеров: 0  [ 0 байт/сек ]  
  

Медовый месяц Камиллы / Camille (2007) BDRip-AVC от New-Team | D

Сообщение Nasty » 11 сен 2018, 19:21

Медовый месяц Камиллы
Camille

«История неумирающей любви»




Страна: США, Великобритания
Жанр: фэнтези, драма, мелодрама, комедия, приключения

Год выпуска: 2007
Продолжительность: 01:30:59

Перевод: Профессиональный (полное дублирование)
Субтитры: русские (полные), английские (полные, SDH)
Оригинальная аудиодорожка: английский

Режиссер: Грегори МакКензи / Gregory Mackenzie

В ролях: Сиенна Миллер, Джеймс Франко, Дэвид Кэрредин, Скотт Гленн, Эд Лотер, Марк Уилсон, Патриция Йетмен, Стив Маркофф, Тайлер Хайнс, Мими Кузык, Джеймс Дуглас, Джордж Бьюза

Описание:
Что может быть романтичнее медового месяца на Ниагаре? Но для Сайласа и Камиллы это будет необычное путешествие. Сайлас - мелкий мошенник, он женится на племяннице шерифа, только чтобы не попасть в тюрьму. Но влюбленная Камилла верит, что ее чувства изменят избранника. И ничто не помешает сбыться ее мечте о медовом месяце, даже собственная смерть...



Релиз:

Автор рипа: stalkerok

Сэмпл

Качество видео: BDRip-AVC [Camille (2007) BDRemux 1080p - rutor]
Формат видео: MKV
Видео кодек: AVC
Аудио кодек: AC3
Видео: AVC, 3644 Кбит/сек, 1152x648 (16:9), 23,976 кадр/сек
Аудио №1: AC3, 448 Кбит/сек, 48 КГц, 5.1 - русский
Аудио №2: AC3, 448 Кбит/сек, 48 КГц, 5.1 - английский
Навигация по главам: есть


---[Information] [11.09.2018 14:11:48] x264 [info]: frame I:1042 Avg QP:18.77 size: 86228
---[Information] [11.09.2018 14:11:48] x264 [info]: frame P:27482 Avg QP:20.53 size: 37501
---[Information] [11.09.2018 14:11:48] x264 [info]: frame B:102380 Avg QP:22.33 size: 13352

Общее
Уникальный идентификатор : 219074564821911127744747498918421053269 (0xA4D039F842D06A348E47E6333179BF55)
Полное имя : O:!RipsCamille (2007)Camille.2007.BDRip.x264.Rus.Eng.stalkerok.New-Team.mkv
Формат : Matroska
Версия формата : Version 4 / Version 2
Размер файла : 2,89 Гбайт
Продолжительность : 1 ч. 30 м.
Общий поток : 4543 Кбит/сек
Название фильма : Camille (2007) | Rip by stalkerok
Дата кодирования : UTC 2018-09-11 14:56:32
Программа кодирования : mkvmerge v8.6.1 ('Flying') 64bit
Библиотека кодирования : libebml v1.3.3 + libmatroska v1.4.4

Видео
Идентификатор : 1
Формат : AVC
Формат/Информация : Advanced Video Codec
Профиль формата : High@L4.1
Параметр CABAC формата : Да
Параметр ReFrames формата : 11 кадров
Идентификатор кодека : V_MPEG4/ISO/AVC
Продолжительность : 1 ч. 30 м.
Битрейт : 3645 Кбит/сек
Ширина : 1152 пикселя
Высота : 648 пикселей
Соотношение сторон : 16:9
Режим частоты кадров : Постоянный
Частота кадров : 23,976 (24000/1001) кадра/сек
Цветовое пространство : YUV
Субдискретизация насыщенности : 4:2:0
Битовая глубина : 8 бит
Тип развёртки : Прогрессивная
Бит/(Пиксели*Кадры) : 0.204
Размер потока : 2,32 Гбайт (80%)
Заголовок : Camille (2007) | Rip by stalkerok
Библиотека кодирования : x264 core 155 r2901 7d0ff22
Настройки программы : cabac=1 / ref=11 / deblock=1:-3:-2 / analyse=0x3:0x133 / me=umh / subme=11 / psy=1 / psy_rd=1.00:0.00 / mixed_ref=1 / me_range=32 / chroma_me=1 / trellis=2 / 8x8dct=1 / cqm=0 / deadzone=21,11 / fast_pskip=0 / chroma_qp_offset=-2 / threads=12 / lookahead_threads=3 / sliced_threads=0 / nr=0 / decimate=1 / interlaced=0 / bluray_compat=0 / constrained_intra=0 / bframes=13 / b_pyramid=2 / b_adapt=2 / b_bias=0 / direct=3 / weightb=1 / open_gop=0 / weightp=2 / keyint=240 / keyint_min=23 / scenecut=40 / intra_refresh=0 / rc_lookahead=60 / rc=crf / mbtree=0 / crf=19.5 / qcomp=0.65 / qpmin=0 / qpmax=69 / qpstep=4 / vbv_maxrate=50000 / vbv_bufsize=62500 / crf_max=0.0 / nal_hrd=none / filler=0 / ip_ratio=1.40 / pb_ratio=1.30 / aq=3:0.90 / zones=125273,130903,q=32
Default : Да
Forced : Нет

Аудио #1
Идентификатор : 2
Формат : AC-3
Формат/Информация : Audio Coding 3
Расширение режима : CM (complete main)
Параметр Endianness формата : Big
Идентификатор кодека : A_AC3
Продолжительность : 1 ч. 30 м.
Вид битрейта : Постоянный
Битрейт : 448 Кбит/сек
Каналы : 6 каналов
Расположение каналов : Front: L C R, Side: L R, LFE
Частота : 48,0 КГц
Частота кадров : 31,250 кадров/сек (1536 spf)
Метод сжатия : С потерями
Размер потока : 292 Мбайт (10%)
Язык : Russian
Default : Да
Forced : Нет

Аудио #2
Идентификатор : 3
Формат : AC-3
Формат/Информация : Audio Coding 3
Расширение режима : CM (complete main)
Параметр Endianness формата : Big
Идентификатор кодека : A_AC3
Продолжительность : 1 ч. 30 м.
Вид битрейта : Постоянный
Битрейт : 448 Кбит/сек
Каналы : 6 каналов
Расположение каналов : Front: L C R, Side: L R, LFE
Частота : 48,0 КГц
Частота кадров : 31,250 кадров/сек (1536 spf)
Метод сжатия : С потерями
Размер потока : 292 Мбайт (10%)
Язык : English
Default : Нет
Forced : Нет

Текст #1
Идентификатор : 4
Формат : UTF-8
Идентификатор кодека : S_TEXT/UTF8
Идентификатор кодека/Информация : UTF-8 Plain Text
Продолжительность : 1 ч. 23 м.
Битрейт : 65 бит/сек
Count of elements : 1046
Размер потока : 40,1 Кбайт (0%)
Язык : Russian
Default : Нет
Forced : Нет

Текст #2
Идентификатор : 5
Формат : UTF-8
Идентификатор кодека : S_TEXT/UTF8
Идентификатор кодека/Информация : UTF-8 Plain Text
Продолжительность : 1 ч. 23 м.
Битрейт : 43 бит/сек
Count of elements : 938
Размер потока : 26,5 Кбайт (0%)
Язык : English
Default : Нет
Forced : Нет

Текст #3
Идентификатор : 6
Формат : UTF-8
Идентификатор кодека : S_TEXT/UTF8
Идентификатор кодека/Информация : UTF-8 Plain Text
Продолжительность : 1 ч. 23 м.
Битрейт : 48 бит/сек
Count of elements : 1022
Размер потока : 29,4 Кбайт (0%)
Заголовок : SDH
Язык : English
Default : Нет
Forced : Нет

Меню
00:00:00.000 : :Глава 01
00:07:06.550 : :Глава 02
00:11:15.174 : :Глава 03
00:19:09.606 : :Глава 04
00:24:47.694 : :Глава 05
00:31:34.100 : :Глава 06
00:36:54.962 : :Глава 07
00:43:28.397 : :Глава 08
00:46:33.957 : :Глава 09
00:51:37.719 : :Глава 10
00:56:39.187 : :Глава 11
01:01:00.406 : :Глава 12
01:06:33.572 : :Глава 13
01:13:19.686 : :Глава 14
01:20:53.557 : :Глава 15
01:27:07.889 : :Глава 16
01:30:58.953 : :Глава 17




 
Не забывайте говорить Спасибо. Не уходите с раздачи!   
Торрент: Зарегистрирован [11 сен 2018, 18:37] Для скачивания .torrent
необходима регистрация
Или скачать с помощью
MediaGet
Статус:
Проверен
 
.torrent скачан: 0 раз
Хэш: 1a36bcdd56d8308b004f1f9270db5eec3488ce20
Размер: 2.89 ГБ (3 100 469 077 байт)
Стать Автором раздачи
 
 
Раздал: 100 ГБ
Скачал: 0 байт
Ратио: Seed.
Сообщения: 25785
Зарегистрирован: 09 апр 2015, 19:56


  • Похожие торренты
    Ответы
    Просмотры
    Последнее сообщение

Вернуться в Зарубежные фильмы 2006-2010 года

Ресурс не предоставляет электронные версии произведений, а занимается лишь коллекционированием и каталогизацией ссылок, присылаемых и публикуемых на форуме нашими читателями. Если вы являетесь правообладателем какого-либо представленного материала и не желаете чтобы ссылка на него находилась в нашем каталоге, свяжитесь с нами и мы незамедлительно удалим её. Файлы для обмена на трекере предоставлены пользователями сайта, и администрация не несёт ответственности за их содержание. Просьба не заливать файлы, защищенные авторскими правами, а также файлы нелегального содержания!
cron