Медовый месяц Камиллы / Camille (2007) BDRip-AVC от New-Team | D

 
 Статистика раздачи 
Размер: 1.46 ГБ   |  Зарегистрирован: 10 сен 2018, 20:03   |   .torrent скачан: 0 раз
Сидеров: 1  [ 0 байт/сек ]     Личеров: 0  [ 0 байт/сек ]  
  

Медовый месяц Камиллы / Camille (2007) BDRip-AVC от New-Team | D

Сообщение Nasty » 10 сен 2018, 20:37

Медовый месяц Камиллы
Camille

«История неумирающей любви»




Страна: США, Великобритания
Жанр: фэнтези, драма, мелодрама, комедия, приключения

Год выпуска: 2007
Продолжительность: 01:30:59

Перевод: Профессиональный (полное дублирование)
Субтитры: русские (полные)
Оригинальная аудиодорожка: нет

Режиссер: Грегори МакКензи / Gregory Mackenzie

В ролях: Сиенна Миллер, Джеймс Франко, Дэвид Кэрредин, Скотт Гленн, Эд Лотер, Марк Уилсон, Патриция Йетмен, Стив Маркофф, Тайлер Хайнс, Мими Кузык, Джеймс Дуглас, Джордж Бьюза

Описание:
Что может быть романтичнее медового месяца на Ниагаре? Но для Сайласа и Камиллы это будет необычное путешествие. Сайлас - мелкий мошенник, он женится на племяннице шерифа, только чтобы не попасть в тюрьму. Но влюбленная Камилла верит, что ее чувства изменят избранника. И ничто не помешает сбыться ее мечте о медовом месяце, даже собственная смерть...



Релиз:

Автор рипа: stalkerok

Сэмпл

Качество видео: BDRip-AVC [Camille (2007) BDRemux 1080p - rutor]
Формат видео: MKV
Видео кодек: AVC
Аудио кодек: AC3
Видео: AVC, 1843 Кбит/сек, 1024x576 (16:9), 23,976 кадр/сек
Аудио: AC3, 448 Кбит/сек, 48 КГц, 5.1 - русский
Навигация по главам: есть


---[Information] [10.09.2018 18:13:14] x264 [info]: frame I:1045 Avg QP:20.48 size: 55023
---[Information] [10.09.2018 18:13:14] x264 [info]: frame P:28047 Avg QP:22.29 size: 20580
---[Information] [10.09.2018 18:13:14] x264 [info]: frame B:101812 Avg QP:24.89 size: 6125

General
Unique ID : 223486690322495528408614812420938032535 (0xA821F88D528AA73CB4DD087441E26597)
Complete name : O:!RipsCamille (2007)Camille.2007.BDRip.x264.Rus.stalkerok.New-Team.mkv
Format : Matroska
Format version : Version 4 / Version 2
File size : 1.46 GiB
Duration : 1 h 30 min
Overall bit rate : 2 294 kb/s
Movie name : Camille (2007) | Rip by stalkerok
Encoded date : UTC 2018-09-10 15:50:43
Writing application : mkvmerge v8.6.1 ('Flying') 64bit
Writing library : libebml v1.3.3 + libmatroska v1.4.4

Video
ID : 1
Format : AVC
Format/Info : Advanced Video Codec
Format profile : High@L4.1
Format settings, CABAC : Yes
Format settings, ReFrames : 12 frames
Codec ID : V_MPEG4/ISO/AVC
Duration : 1 h 30 min
Bit rate : 1 844 kb/s
Width : 1 024 pixels
Height : 576 pixels
Display aspect ratio : 16:9
Frame rate mode : Constant
Frame rate : 23.976 (24000/1001) FPS
Color space : YUV
Chroma subsampling : 4:2:0
Bit depth : 8 bits
Scan type : Progressive
Bits/(Pixel*Frame) : 0.130
Stream size : 1.17 GiB (80%)
Title : Camille (2007) | Rip by stalkerok
Writing library : x264 core 157 r2932 303c484
Encoding settings : cabac=1 / ref=12 / deblock=1:-3:-2 / analyse=0x3:0x133 / me=umh / subme=11 / psy=1 / psy_rd=1.00:0.00 / mixed_ref=1 / me_range=32 / chroma_me=1 / trellis=2 / 8x8dct=1 / cqm=0 / deadzone=21,11 / fast_pskip=0 / chroma_qp_offset=-2 / threads=12 / lookahead_threads=3 / sliced_threads=0 / nr=0 / decimate=1 / interlaced=0 / bluray_compat=0 / constrained_intra=0 / bframes=14 / b_pyramid=2 / b_adapt=2 / b_bias=0 / direct=3 / weightb=1 / open_gop=0 / weightp=2 / keyint=240 / keyint_min=23 / scenecut=40 / intra_refresh=0 / rc_lookahead=60 / rc=crf / mbtree=0 / crf=21.3 / qcomp=0.65 / qpmin=0 / qpmax=69 / qpstep=4 / vbv_maxrate=50000 / vbv_bufsize=62500 / crf_max=0.0 / nal_hrd=none / filler=0 / ip_ratio=1.40 / pb_ratio=1.30 / aq=3:0.90
Default : Yes
Forced : No

Audio
ID : 2
Format : AC-3
Format/Info : Audio Coding 3
Mode extension : CM (complete main)
Format settings, Endianness : Big
Codec ID : A_AC3
Duration : 1 h 30 min
Bit rate mode : Constant
Bit rate : 448 kb/s
Channel(s) : 6 channels
Channel positions : Front: L C R, Side: L R, LFE
Sampling rate : 48.0 kHz
Frame rate : 31.250 FPS (1536 spf)
Compression mode : Lossy
Stream size : 292 MiB (20%)
Language : Russian
Default : Yes
Forced : No

Text
ID : 3
Format : UTF-8
Codec ID : S_TEXT/UTF8
Codec ID/Info : UTF-8 Plain Text
Duration : 1 h 23 min
Bit rate : 65 b/s
Count of elements : 1046
Stream size : 40.1 KiB (0%)
Language : Russian
Default : No
Forced : No

Menu
00:00:00.000 : en:Chapter 1
00:05:00.000 : en:Chapter 2
00:10:00.000 : en:Chapter 3
00:15:00.000 : en:Chapter 4
00:20:00.000 : en:Chapter 5
00:25:00.000 : en:Chapter 6
00:30:00.000 : en:Chapter 7
00:35:00.000 : en:Chapter 8
00:40:00.000 : en:Chapter 9
00:45:00.000 : en:Chapter 10
00:50:00.000 : en:Chapter 11
00:55:00.000 : en:Chapter 12
01:00:00.000 : en:Chapter 13
01:05:00.000 : en:Chapter 14
01:10:00.000 : en:Chapter 15
01:15:00.000 : en:Chapter 16
01:20:00.000 : en:Chapter 17
01:25:00.000 : en:Chapter 18
01:30:00.000 : en:Chapter 19





 
Не забывайте говорить Спасибо. Не уходите с раздачи!   
Торрент: Зарегистрирован [10 сен 2018, 20:03] Для скачивания .torrent
необходима регистрация
Или скачать с помощью
MediaGet
Статус:
Проверен
 
.torrent скачан: 0 раз
Хэш: 6dac60a008a07cf2ce959877fb46bcc49afc2a42
Размер: 1.46 ГБ (1 565 262 050 байт)
Стать Автором раздачи
 
 
Раздал: 100 ГБ
Скачал: 0 байт
Ратио: Seed.
Сообщения: 25785
Зарегистрирован: 09 апр 2015, 19:56


  • Похожие торренты
    Ответы
    Просмотры
    Последнее сообщение

Вернуться в Зарубежные фильмы 2006-2010 года

Ресурс не предоставляет электронные версии произведений, а занимается лишь коллекционированием и каталогизацией ссылок, присылаемых и публикуемых на форуме нашими читателями. Если вы являетесь правообладателем какого-либо представленного материала и не желаете чтобы ссылка на него находилась в нашем каталоге, свяжитесь с нами и мы незамедлительно удалим её. Файлы для обмена на трекере предоставлены пользователями сайта, и администрация не несёт ответственности за их содержание. Просьба не заливать файлы, защищенные авторскими правами, а также файлы нелегального содержания!
cron