Дон Кихот - Никогда не сдавайся / Don Quichote - Gib niemals auf! (2008) DVDRip-AVC | A

 
 Статистика раздачи 
Размер: 1.81 ГБ   |  Зарегистрирован: 09 сен 2018, 13:49   |   .torrent скачан: 0 раз
Сидеров: 1  [ 0 байт/сек ]     Личеров: 0  [ 0 байт/сек ]  
  

Дон Кихот - Никогда не сдавайся / Don Quichote - Gib niemals auf! (2008) DVDRip-AVC | A

Сообщение Nasty » 09 сен 2018, 14:20

Информация о фильме
Название: Дон Кихот - Никогда не сдавайся
Оригинальное название: Don Quichote - Gib niemals auf!
Год выхода: 2008
Жанр: комедия, драма
Режиссер: Сибилла Тафель
В ролях: Йоханн Хилльманн, Кристоф Мария Хербст, Петер Ломайер, Саския Вестер, Ганс Рихтер, Хуан Наварро, Хесус Кальво, Жерар Гаррига, Альберт Гарсия

О фильме:
"Реши для себя: ты хочешь быть хорошим отцом или хорошим бизнесменом", - так тётя Сибилл пытается объяснить отцу Морица Михаэлю, что он должен заботиться о сыне. Таким образом двенадцатилетний Мориц попадает на время каникул в Испанию, где работает его отец. И здесь тоже отец опаздывает забрать Морица из аэропорта. Мальчик отправляется в путь сам, при этом он встречает не только симпатичную Вики, но и всадника, который говорит ему, что он Дон Кихот.



Производство: Германия / Roxy Film,Steinweg Emotion Pictures,Televisió de Catalunya (TV3)
Продолжительность: 01:30:23
Перевод: авторский одноголосый [Юрий Муравский]

Файл
Качество: DVDRip-AVC
Формат: MKV
Видео: MPEG-4 AVC, 1024x576 (16:9), 25.000 fps, 2231 kbps, 0.151 bit/pixel
Аудио #1: русский, AC3 2.0, 48 kHz, 192 kbps
Аудио #2: немецкий, AC3 5.1, 48 kHz, 448 kbps

Общее
Уникальный идентификатор : 211390087245797763193852955894942842533 (0x9F083FF94580F4E58759592DC568BEA5)
Полное имя : Don.Quichote.Gib.Niemals.Auf.2008.DVDRip.mkv
Формат : Matroska
Версия формата : Version 4 / Version 2
Размер файла : 1,81 Гбайт
Продолжительность : 1 ч. 30 м.
Общий поток : 2873 Кбит/сек
Дата кодирования : UTC 2017-03-22T13:26:35Z
Программа кодирования : mkvmerge v7.9.0 ('Birds') 64bit
Библиотека кодирования : Lavf57.7.2

Видео
Идентификатор : 1
Формат : AVC
Формат/Информация : Advanced Video Codec
Профиль формата : High@L4.1
Параметр CABAC формата : Да
Параметр ReFrames формата : 7 кадров
Идентификатор кодека : V_MPEG4/ISO/AVC
Продолжительность : 1 ч. 30 м.
Битрейт : 2231 Кбит/сек
Ширина : 1024 пикселя
Высота : 576 пикселей
Соотношение сторон : 16:9
Режим частоты кадров : Постоянный
Частота кадров : 25,000 кадров/сек
Цветовое пространство : YUV
Субдискретизация насыщенности : 4:2:0
Битовая глубина : 8 бит
Тип развёртки : Прогрессивная
Бит/(Пиксели*Кадры) : 0.151
Размер потока : 1,37 Гбайт (76%)
Библиотека кодирования : x264 core 148 r2708 86b7198
Настройки программы : cabac=1 / ref=7 / deblock=1:-3:-3 / analyse=0x3:0x113 / me=umh / subme=10 / psy=1 / psy_rd=1.00:0.00 / mixed_ref=1 / me_range=24 / chroma_me=1 / trellis=2 / 8x8dct=1 / cqm=0 / deadzone=21,11 / fast_pskip=1 / chroma_qp_offset=-2 / threads=4 / lookahead_threads=1 / sliced_threads=0 / nr=0 / decimate=1 / interlaced=0 / bluray_compat=0 / constrained_intra=0 / bframes=3 / b_pyramid=0 / b_adapt=1 / b_bias=0 / direct=1 / weightb=1 / open_gop=0 / weightp=2 / keyint=250 / keyint_min=25 / scenecut=40 / intra_refresh=0 / rc_lookahead=10 / rc=2pass / mbtree=1 / bitrate=2231 / ratetol=1.0 / qcomp=0.60 / qpmin=0 / qpmax=69 / qpstep=4 / cplxblur=20.0 / qblur=0.5 / vbv_maxrate=62500 / vbv_bufsize=78125 / nal_hrd=none / filler=0 / ip_ratio=1.40 / aq=1:1.00
Default : Да
Forced : Нет
Цветовой диапазон : Limited
Основные цвета : BT.601 PAL
Характеристики трансфера : BT.709
Коэффициенты матрицы : BT.601

Аудио #1
Идентификатор : 2
Формат : AC-3
Формат/Информация : Audio Coding 3
Расширение режима : CM (complete main)
Параметр Endianness формата : Big
Идентификатор кодека : A_AC3
Продолжительность : 1 ч. 30 м.
Вид битрейта : Постоянный
Битрейт : 192 Кбит/сек
Каналы : 2 канала
Расположение каналов : Front: L R
Частота : 48,0 КГц
Метод сжатия : С потерями
Задержка видео : -5 мс.
Размер потока : 124 Мбайт (7%)
Язык : Russian
Default : Да
Forced : Нет

Аудио #2
Идентификатор : 3
Формат : AC-3
Формат/Информация : Audio Coding 3
Расширение режима : CM (complete main)
Параметр Endianness формата : Big
Идентификатор кодека : A_AC3
Продолжительность : 1 ч. 30 м.
Вид битрейта : Постоянный
Битрейт : 448 Кбит/сек
Каналы : 6 каналов
Расположение каналов : Front: L C R, Side: L R, LFE
Частота : 48,0 КГц
Метод сжатия : С потерями
Задержка видео : -5 мс.
Размер потока : 290 Мбайт (16%)
Язык : German
Default : Нет
Forced : Нет

Меню
00:00:00.000 : :Chapter 1
00:03:50.800 : :Chapter 2
00:08:54.400 : :Chapter 3
00:13:36.360 : :Chapter 4
00:17:57.880 : :Chapter 5
00:23:09.200 : :Chapter 6
00:29:03.720 : :Chapter 7
00:34:39.040 : :Chapter 8
00:45:02.760 : :Chapter 9
00:52:27.120 : :Chapter 10
00:59:09.120 : :Chapter 11
01:05:28.160 : :Chapter 12
01:10:10.360 : :Chapter 13
01:16:49.600 : :Chapter 14
01:28:14.040 : :Chapter 15
 
Не забывайте говорить Спасибо. Не уходите с раздачи!   
Торрент: Зарегистрирован [09 сен 2018, 13:49] Для скачивания .torrent
необходима регистрация
Или скачать с помощью
MediaGet
Статус:
Проверен
 
.torrent скачан: 0 раз
Хэш: 2b54a1b1b14675ca1eba12d749381aa005e085af
Размер: 1.81 ГБ (1 947 753 243 байт)
Стать Автором раздачи
 
 
Раздал: 100 ГБ
Скачал: 0 байт
Ратио: Seed.
Сообщения: 25785
Зарегистрирован: 09 апр 2015, 19:56


  • Похожие торренты
    Ответы
    Просмотры
    Последнее сообщение

Вернуться в Зарубежные фильмы 2006-2010 года

Ресурс не предоставляет электронные версии произведений, а занимается лишь коллекционированием и каталогизацией ссылок, присылаемых и публикуемых на форуме нашими читателями. Если вы являетесь правообладателем какого-либо представленного материала и не желаете чтобы ссылка на него находилась в нашем каталоге, свяжитесь с нами и мы незамедлительно удалим её. Файлы для обмена на трекере предоставлены пользователями сайта, и администрация не несёт ответственности за их содержание. Просьба не заливать файлы, защищенные авторскими правами, а также файлы нелегального содержания!
cron