Крутой (2012) WEB-DL 1080р

 
 Статистика раздачи 
Размер: 3.1 ГБ   |  Зарегистрирован: 17 авг 2018, 15:28   |   .torrent скачан: 0 раз
Сидеров: 1  [ 0 байт/сек ]     Личеров: 0  [ 0 байт/сек ]  
  

Крутой (2012) WEB-DL 1080р

Сообщение apple2000 » 17 авг 2018, 16:02

Крутой

Страна: Россия
Производство: Триикс Медиа
Год выпуска: 2012
Жанр: боевик, детектив
Продолжительность: 01:26:37

Режиссер: Максим Демченко
Автор сценария: Константин Горский

В ролях: Максим Дрозд, Михаил Полосухин, Анна Лутцева, Сергей Гамов, Виктор Смирнов, Александр Строев, Наталья Бурмистрова, Андрей Тутов

Описание: Каверин, некогда служивший в ОМОНе, начинает работать на себя — он перевозит грузы и никогда не спрашивает заказчика о том, что внутри. Однажды, доставив груз, Каверин видит, что в чемодане, который он вёз — связанная девочка. Люди заказчика похитили её и Каверин, сам не зная о содержимом посылки, доставил девочку главарю банды. За девочку требуют выкуп, саму же её хотят убить, чтобы избавиться от свидетеля. Среди бандитов — Брыль — бывший сослуживец и враг Каверина. Каверин вступает в схватку с бандитами, ему удается отбить у них девочку, и скрыться. Каверин, преследуемый бандитами, идущими по пятам, начинает поиск родителей девочки...



Перевод: не требуется (оригинал)
Субтитры: нет


Качество: WEB-DL 1080р
Формат: МКV
Видео кодек: AVC
Аудио кодек: АС3
Видео: 1920x1080 (16:9), 25.000 fps, MPEG-4 AVC ~4 807 kbps avg
Аудио: 48.0 kHz, AC3 Dolby Digital, 2/0 (L,R) ch, ~192 kbps

Дата премьеры (мир): 5 января 2013



Релиз от: Aлexandr
General
General
Unique ID : 203471641678095475053011103806411923746 (0x991336770E492BC34451BA4D8E6A6122)
Complete name : Крутой (2012).by.Алехаndr.mkv
Format : Matroska
Format version : Version 4 / Version 2
File size : 3.10 GiB
Duration : 1h 26mn
Overall bit rate : 5 100 Kbps
Encoded date : UTC 2018-08-16 11:50:13
Writing application : mkvmerge v25.0.0 ('Prog Noir') 64-bit
Writing library : libebml v1.3.6 + libmatroska v1.4.9

Video
ID : 1
Format : AVC
Format/Info : Advanced Video Codec
Format profile : Main@L4
Format settings, CABAC : Yes
Format settings, ReFrames : 1 frame
Codec ID : V_MPEG4/ISO/AVC
Duration : 1h 26mn
Bit rate : 4 807 Kbps
Width : 1 920 pixels
Height : 1 080 pixels
Display aspect ratio : 16:9
Frame rate mode : Constant
Frame rate : 25.000 fps
Color space : YUV
Chroma subsampling : 4:2:0
Bit depth : 8 bits
Scan type : Progressive
Bits/(Pixel*Frame) : 0.093
Stream size : 2.92 GiB (94%)
Default : Yes
Forced : No

Audio
ID : 2
Format : AC-3
Format/Info : Audio Coding 3
Mode extension : CM (complete main)
Format settings, Endianness : Big
Codec ID : A_AC3
Duration : 1h 26mn
Bit rate mode : Constant
Bit rate : 192 Kbps
Channel(s) : 2 channels
Channel positions : Front: L R
Sampling rate : 48.0 KHz
Compression mode : Lossy
Stream size : 119 MiB (4%)
Default : Yes
Forced : No
 
Не забывайте говорить Спасибо. Не уходите с раздачи!   
Торрент: Зарегистрирован [17 авг 2018, 15:28] Скачать торрент
Скачать торрент
[ Размер 16.43 КБ / Просмотров 1 ]
Статус:
Проверен
 
.torrent скачан: 0 раз
Хэш: 9aa4f747338fa1ce2ff5cc0ae655c817b453796c
Размер: 3.1 ГБ (3 326 998 220 байт)
Стать Автором раздачи
 
 
Раздал: 0 байт
Скачал: 0 байт
Ратио: Inf.
Сообщения: 42425
Зарегистрирован: 05 окт 2014, 15:23


  • Похожие торренты
    Ответы
    Просмотры
    Последнее сообщение

Вернуться в Отечественные фильмы 2011 - 2015 года

Ресурс не предоставляет электронные версии произведений, а занимается лишь коллекционированием и каталогизацией ссылок, присылаемых и публикуемых на форуме нашими читателями. Если вы являетесь правообладателем какого-либо представленного материала и не желаете чтобы ссылка на него находилась в нашем каталоге, свяжитесь с нами и мы незамедлительно удалим её. Файлы для обмена на трекере предоставлены пользователями сайта, и администрация не несёт ответственности за их содержание. Просьба не заливать файлы, защищенные авторскими правами, а также файлы нелегального содержания!
cron