Весенний призыв (1976) DVDRip-AVC от KORSAR

 
 Статистика раздачи 
Размер: 1.82 ГБ   |  Зарегистрирован: 15 авг 2018, 06:20   |   .torrent скачан: 0 раз
Сидеров: 1  [ 0 байт/сек ]     Личеров: 0  [ 0 байт/сек ]  
  

Весенний призыв (1976) DVDRip-AVC от KORSAR

Сообщение apple2000 » 15 авг 2018, 07:13

Год выпуска: 1976
Жанр: Психологическая драма
Продолжительность: 01:29:21
Режиссер: Павел Любимов
В ролях: Александр Фатюшин, Игорь Костолевский, Анна Каменкова, Виктор Проскурин, Борис Морозов, Александр Постников, Наталья Захарова, Леонид Ярмольник

Описание: Герой фильма сержант Карпенко получает в свое распоряжение отряд новобранцев. Ему предстоит научить ребят азам солдатской науки, преодолев их недоверчивость, ироничность и нежелание подчиняться воинской дисциплине…
Это непосредственная и добродушная история об армейской дружбе и становлении характера стала знаковой работой для режиссёра Павла Любимова ("Бегущая по волнам", "Школьный вальс", "Гол в Спасские ворота") и была удостоена Серебряной медали им.Довженко.

Релиз от:

Кодек: х264
Качество: DVDRip-AVC
Видео: MPEG-4 AVC, 706x524@1004x524, 25 fps, 2641 Кбит/с
Звук: AC3, 2 ch, 256 Кбит/с



    x264 [info]: frame I:735 Avg QP:18.27 size: 69698
    x264 [info]: frame P:35293 Avg QP:19.60 size: 31506
    x264 [info]: frame B:98022 Avg QP:22.48 size: 6575
Общее
Уникальный идентификатор : 174056894790176487401961832953059918408 (0x82F2237958A01408BCA25F3B626AC248)
Полное имя : D:Весенний призыв_1976-DVDRip-AVC_KORSAR.mkv
Формат : Matroska
Версия формата : Version 2
Размер файла : 1,82 Гбайт
Продолжительность : 1 ч. 29 м.
Общий поток : 2923 Кбит/сек
Название фильма : Весенний призыв_1976-DVDRip-AVC_KORSAR
Дата кодирования : UTC 2018-06-09 13:42:45
Программа кодирования : mkvmerge v5.8.0 ('No Sleep / Pillow') built on Sep 2 2012 15:37:04
Библиотека кодирования : libebml v1.2.3 + libmatroska v1.3.0

Видео
Идентификатор : 1
Формат : AVC
Формат/Информация : Advanced Video Codec
Профиль формата : High@L4.1
Параметр CABAC формата : Да
Параметр RefFrames формата : 14 кадров
Идентификатор кодека : V_MPEG4/ISO/AVC
Продолжительность : 1 ч. 29 м.
Битрейт : 2641 Кбит/сек
Ширина : 706 пикселей
Высота : 524 пикселя
Соотношение сторон : 1,916
Режим частоты кадров : Постоянный
Частота кадров : 25,000 кадров/сек
Цветовое пространство : YUV
Субдискретизация насыщенности : 4:2:0
Битовая глубина : 8 бит
Тип развёртки : Прогрессивная
Бит/(Пиксели*Кадры) : 0.286
Размер потока : 1,65 Гбайт (90%)
Библиотека кодирования : x264 core 152 r2851kMod ba24899
Настройки программы : cabac=1 / ref=14 / deblock=1:-2:-1 / analyse=0x3:0x133 / me=umh / subme=10 / psy=1 / fade_compensate=0.00 / psy_rd=1.05:0.12 / mixed_ref=1 / me_range=32 / chroma_me=1 / trellis=2 / 8x8dct=1 / cqm=0 / deadzone=21,11 / fast_pskip=1 / chroma_qp_offset=-3 / threads=12 / lookahead_threads=2 / sliced_threads=0 / nr=0 / decimate=1 / interlaced=0 / bluray_compat=0 / constrained_intra=0 / bframes=9 / b_pyramid=2 / b_adapt=2 / b_bias=0 / direct=1 / weightb=1 / open_gop=0 / weightp=2 / keyint=250 / keyint_min=25 / scenecut=40 / intra_refresh=0 / rc=crf / mbtree=0 / crf=16.9000 / qcomp=0.63 / qpmin=0 / qpmax=39 / qpstep=4 / ip_ratio=1.40 / pb_ratio=1.30 / aq=1:1.00
Язык : English
Default : Да
Forced : Нет
Цветовой диапазон : Limited
Основные цвета : BT.601 PAL
Характеристики трансфера : BT.470 System B, BT.470 System G
Коэффициенты матрицы : BT.601

Аудио
Идентификатор : 2
Формат : AC-3
Формат/Информация : Audio Coding 3
Параметр Endianness формата : Big
Идентификатор кодека : A_AC3
Продолжительность : 1 ч. 29 м.
Вид битрейта : Постоянный
Битрейт : 224 Кбит/сек
Каналы : 2 канала
Расположение каналов : Front: L R
Частота : 48,0 КГц
Частота кадров : 31,250 кадров/сек (1536 SPF)
Битовая глубина : 16 бит
Метод сжатия : С потерями
Размер потока : 143 Мбайт (8%)
Язык : Russian
Default : Да
Forced : Нет

Меню
00:00:00.000 : en:Chapter 1
00:07:53.800 : en:Chapter 2
00:12:14.520 : en:Chapter 3
00:21:14.960 : en:Chapter 4
00:27:44.000 : en:Chapter 5
00:35:50.160 : en:Chapter 6
00:42:38.160 : en:Chapter 7
00:46:51.400 : en:Chapter 8
00:53:57.640 : en:Chapter 9
01:03:23.000 : en:Chapter 10
01:12:16.000 : en:Chapter 11
01:23:06.240 : en:Chapter 12
01:29:21.560 : en:Chapter 13

 
Не забывайте говорить Спасибо. Не уходите с раздачи!   
Торрент: Зарегистрирован [15 авг 2018, 06:20] Скачать торрент
Скачать торрент
[ Размер 19.23 КБ / Просмотров 4 ]
Статус:
Проверен
 
.torrent скачан: 0 раз
Хэш: a2c8bc89079e5cc030d1091c8a85888c52193471
Размер: 1.82 ГБ (1 959 017 757 байт)
Стать Автором раздачи
 
 
Раздал: 0 байт
Скачал: 0 байт
Ратио: Inf.
Сообщения: 44638
Зарегистрирован: 05 окт 2014, 15:23


  • Похожие торренты
    Ответы
    Просмотры
    Последнее сообщение

Вернуться в Кино СССР, Советской России, Российской республики (1917-1991)

Ресурс не предоставляет электронные версии произведений, а занимается лишь коллекционированием и каталогизацией ссылок, присылаемых и публикуемых на форуме нашими читателями. Если вы являетесь правообладателем какого-либо представленного материала и не желаете чтобы ссылка на него находилась в нашем каталоге, свяжитесь с нами и мы незамедлительно удалим её. Файлы для обмена на трекере предоставлены пользователями сайта, и администрация не несёт ответственности за их содержание. Просьба не заливать файлы, защищенные авторскими правами, а также файлы нелегального содержания!
cron