Будни уголовного розыска (1973) HDTVRip 720p от KORSAR

 
 Статистика раздачи 
Размер: 2.16 ГБ   |  Зарегистрирован: 12 авг 2018, 16:35   |   .torrent скачан: 0 раз
Сидеров: 1  [ 0 байт/сек ]     Личеров: 0  [ 0 байт/сек ]  
  

Будни уголовного розыска (1973) HDTVRip 720p от KORSAR

Сообщение apple2000 » 12 авг 2018, 17:05

Год выпуска: 1973
Жанр: Детектив
Продолжительность: 01:22:36
Режиссер: Суламифь Цыбульник
В ролях: Борис Зайденберг, Николай Лебедев, Виктор Мирошниченко, Павел Кормунин, Владимир Нечипоренко, Юрий Каморный, Лев Перфилов, Екатерина Крупенникова, Михаил Водяной, Борис Мирус, Константин Степанков, Александр Голобородько, Юрий Белов, Раднэр Муратов, Николай Дупак

Описание: Подполковник Миронов расследует дело об ограблении поселковой кассы. К сожалению, несколько месяцев кропотливой работы не дают почти никаких результатов. Во время следствия неожиданно умирает главный подозреваемый вор-рецидивист.

Релиз от:
Кодек: х264
Качество: HDTVRip 720p
Видео: MPEG-4 AVC, 1280x542, 25 fps, 3469 Кбит/с
Звук: AC3, 2 ch, 192 Кбит/с


    x264 [info]: frame I:633 Avg QP:17.37 size: 90248
    x264 [info]: frame P:24992 Avg QP:18.84 size: 41734
    x264 [info]: frame B:98293 Avg QP:19.89 size: 11129
    x264 [info]: consecutive B-frames: 1.2% 2.2% 7.2% 8.6% 23.3% 46.1% 7.1% 1.6% 1.4% 1.0% 0.2% 0.1%
Общее
Уникальный идентификатор : 242278032574829325001599964071960340968 (0xB6450D41796DB6C0AF7DF062E0B569E8)
Полное имя : D:Будни уголовного розыска_1973-HDTVRip 720p_KORSAR.mkv
Формат : Matroska
Версия формата : Version 2
Размер файла : 2,16 Гбайт
Продолжительность : 1 ч. 22 м.
Общий поток : 3735 Кбит/сек
Название фильма : Будни уголовного розыска_1973-HDTVRip 720p_KORSAR
Дата кодирования : UTC 2018-08-09 17:19:56
Программа кодирования : mkvmerge v5.8.0 ('No Sleep / Pillow') built on Sep 2 2012 15:37:04
Библиотека кодирования : libebml v1.2.3 + libmatroska v1.3.0

Видео
Идентификатор : 1
Формат : AVC
Формат/Информация : Advanced Video Codec
Профиль формата : High@L4.1
Параметр CABAC формата : Да
Параметр RefFrames формата : 12 кадров
Идентификатор кодека : V_MPEG4/ISO/AVC
Продолжительность : 1 ч. 22 м.
Битрейт : 3469 Кбит/сек
Ширина : 1280 пикселей
Высота : 542 пикселя
Соотношение сторон : 2,35:1
Режим частоты кадров : Постоянный
Частота кадров : 25,000 кадров/сек
Цветовое пространство : YUV
Субдискретизация насыщенности : 4:2:0
Битовая глубина : 8 бит
Тип развёртки : Прогрессивная
Бит/(Пиксели*Кадры) : 0.200
Размер потока : 2,00 Гбайт (93%)
Библиотека кодирования : x264 core 152 r2851kMod ba24899
Настройки программы : cabac=1 / ref=12 / deblock=1:-2:-1 / analyse=0x3:0x113 / me=umh / subme=10 / psy=1 / fade_compensate=0.00 / psy_rd=1.10:0.15 / mixed_ref=1 / me_range=40 / chroma_me=1 / trellis=2 / 8x8dct=1 / cqm=0 / deadzone=21,11 / fast_pskip=1 / chroma_qp_offset=-3 / threads=12 / lookahead_threads=3 / sliced_threads=0 / nr=0 / decimate=1 / interlaced=0 / bluray_compat=0 / constrained_intra=0 / bframes=11 / b_pyramid=2 / b_adapt=2 / b_bias=0 / direct=1 / weightb=1 / open_gop=0 / weightp=2 / keyint=250 / keyint_min=25 / scenecut=40 / intra_refresh=0 / rc=crf / mbtree=0 / crf=18.5000 / qcomp=0.63 / qpmin=0 / qpmax=39 / qpstep=4 / ip_ratio=1.40 / pb_ratio=1.30 / aq=1:1.00
Язык : English
Default : Да
Forced : Нет
Цветовой диапазон : Limited
Основные цвета : BT.709
Характеристики трансфера : BT.709
Коэффициенты матрицы : BT.709

Аудио
Идентификатор : 2
Формат : AC-3
Формат/Информация : Audio Coding 3
Параметр Endianness формата : Big
Идентификатор кодека : A_AC3
Продолжительность : 1 ч. 22 м.
Вид битрейта : Постоянный
Битрейт : 192 Кбит/сек
Каналы : 2 канала
Расположение каналов : Front: L R
Частота : 48,0 КГц
Частота кадров : 31,250 кадров/сек (1536 SPF)
Битовая глубина : 16 бит
Метод сжатия : С потерями
Размер потока : 113 Мбайт (5%)
Язык : Russian
Default : Да
Forced : Нет

 
Не забывайте говорить Спасибо. Не уходите с раздачи!   
Торрент: Зарегистрирован [12 авг 2018, 16:35] Скачать торрент
Скачать торрент
[ Размер 11.77 КБ / Просмотров 2 ]
Статус:
Проверен
 
.torrent скачан: 0 раз
Хэш: 406e2cddee7d681a270fe22c655cb0112384c844
Размер: 2.16 ГБ (2 314 079 540 байт)
Стать Автором раздачи
 
 
Раздал: 0 байт
Скачал: 0 байт
Ратио: Inf.
Сообщения: 41074
Зарегистрирован: 05 окт 2014, 15:23


  • Похожие торренты
    Ответы
    Просмотры
    Последнее сообщение

Вернуться в Кино СССР, Советской России, Российской республики (1917-1991)

Ресурс не предоставляет электронные версии произведений, а занимается лишь коллекционированием и каталогизацией ссылок, присылаемых и публикуемых на форуме нашими читателями. Если вы являетесь правообладателем какого-либо представленного материала и не желаете чтобы ссылка на него находилась в нашем каталоге, свяжитесь с нами и мы незамедлительно удалим её. Файлы для обмена на трекере предоставлены пользователями сайта, и администрация не несёт ответственности за их содержание. Просьба не заливать файлы, защищенные авторскими правами, а также файлы нелегального содержания!
cron