Десять негритят (1987) HDTVRip 720p от KORSAR

 
 Статистика раздачи 
Размер: 4.14 ГБ   |  Зарегистрирован: 12 авг 2018, 16:25   |   .torrent скачан: 0 раз
Сидеров: 1  [ 0 байт/сек ]     Личеров: 0  [ 0 байт/сек ]  
  

Десять негритят (1987) HDTVRip 720p от KORSAR

Сообщение apple2000 » 12 авг 2018, 17:05

Год выхода: 1987
Жанр: криминал, детектив, триллер
Режиссер: Станислав Говорухин
В ролях: Владимир Зельдин, Татьяна Друбич, Александр Кайдановский, Алексей Жарков, Анатолий Ромашин, Людмила Максакова, Михаил Глузский, Алексей Золотницкий, Ирина Терещенко, Александр Абдулов, Вячеслав Жариков, Фёдор Одиноков, Владимир Жариков

О фильме: Десять человек приглашены на Негритянский остров под разными предлогами. Оказавшись в замке, каждый слышит записанный на пластинку смертный приговор. На столе — черные фигурки негритят, в каждой спальне — стишок на стене. «Десять негритят решили пообедать, один из них вдруг поперхнулся, и их осталось девять». Умирает человек — исчезает фигурка негритенка…


Релиз от:
Страна: СССР
Студия: Одесская киностудия
Продолжительность: 02:08:14
Перевод: Не требуется

Кодек: x264
Качество: HDTVRip 720р
Видео: MPEG-4 AVC, 984x720, 25 кадр/с, 4334 Кбит/с
Звук: AC3, 2 ch, 192 Кбит/с
Субтитры: Русские


    x264 [info]: frame I:982 Avg QP:17.04 size:125914
    x264 [info]: frame P:43042 Avg QP:18.58 size: 62092
    x264 [info]: frame B:148423 Avg QP:21.17 size: 9841
    x264 [info]: consecutive B-frames: 1.7% 3.3% 9.7% 16.6% 26.6% 35.4% 4.3% 1.3% 0.6% 0.5% 0.0% 0.0%
Общее
Уникальный идентификатор : 187760615090155487971294248438383844897 (0x8D41610C8ED8116FB8C21DA583411E21)
Полное имя : D:Десять негритят_1987-HDTVRip 720p_KORSAR.mkv
Формат : Matroska
Версия формата : Version 2
Размер файла : 4,14 Гбайт
Продолжительность : 2 ч. 8 м.
Общий поток : 4618 Кбит/сек
Название фильма : Десять негритят_1987-HDTVRip 720p_KORSAR
Дата кодирования : UTC 2018-08-09 06:44:38
Программа кодирования : mkvmerge v5.8.0 ('No Sleep / Pillow') built on Sep 2 2012 15:37:04
Библиотека кодирования : libebml v1.2.3 + libmatroska v1.3.0

Видео
Идентификатор : 1
Формат : AVC
Формат/Информация : Advanced Video Codec
Профиль формата : High@L4.1
Параметр CABAC формата : Да
Параметр RefFrames формата : 11 кадров
Идентификатор кодека : V_MPEG4/ISO/AVC
Продолжительность : 2 ч. 8 м.
Битрейт : 4334 Кбит/сек
Ширина : 984 пикселя
Высота : 720 пикселей
Соотношение сторон : 4:3
Режим частоты кадров : Постоянный
Частота кадров : 25,000 кадров/сек
Цветовое пространство : YUV
Субдискретизация насыщенности : 4:2:0
Битовая глубина : 8 бит
Тип развёртки : Прогрессивная
Бит/(Пиксели*Кадры) : 0.245
Размер потока : 3,88 Гбайт (94%)
Библиотека кодирования : x264 core 152 r2851kMod ba24899
Настройки программы : cabac=1 / ref=11 / deblock=1:-2:-2 / analyse=0x3:0x113 / me=umh / subme=10 / psy=1 / fade_compensate=0.00 / psy_rd=1.00:0.10 / mixed_ref=1 / me_range=40 / chroma_me=1 / trellis=2 / 8x8dct=1 / cqm=0 / deadzone=21,11 / fast_pskip=1 / chroma_qp_offset=-3 / threads=12 / lookahead_threads=3 / sliced_threads=0 / nr=0 / decimate=1 / interlaced=0 / bluray_compat=0 / constrained_intra=0 / bframes=11 / b_pyramid=2 / b_adapt=2 / b_bias=0 / direct=1 / weightb=1 / open_gop=0 / weightp=2 / keyint=250 / keyint_min=25 / scenecut=40 / intra_refresh=0 / rc=crf / mbtree=0 / crf=17.6000 / qcomp=0.63 / qpmin=0 / qpmax=39 / qpstep=4 / ip_ratio=1.40 / pb_ratio=1.30 / aq=1:0.80
Язык : English
Default : Да
Forced : Нет
Цветовой диапазон : Limited
Основные цвета : BT.709
Характеристики трансфера : BT.709
Коэффициенты матрицы : BT.709

Аудио
Идентификатор : 2
Формат : AC-3
Формат/Информация : Audio Coding 3
Параметр Endianness формата : Big
Идентификатор кодека : A_AC3
Продолжительность : 2 ч. 8 м.
Вид битрейта : Постоянный
Битрейт : 192 Кбит/сек
Каналы : 2 канала
Расположение каналов : Front: L R
Частота : 48,0 КГц
Частота кадров : 31,250 кадров/сек (1536 SPF)
Битовая глубина : 16 бит
Метод сжатия : С потерями
Размер потока : 176 Мбайт (4%)
Язык : Russian
Default : Да
Forced : Нет

Текст
Идентификатор : 3
Формат : UTF-8
Идентификатор кодека : S_TEXT/UTF8
Идентификатор кодека/Информация : UTF-8 Plain Text
Язык : Russian
Default : Нет
Forced : Нет

Меню
00:00:00.000 : ru:Глава 1
00:06:55.320 : ru:Глава 2
00:13:07.560 : ru:Глава 3
00:20:56.760 : ru:Глава 4
00:29:07.400 : ru:Глава 5
00:37:48.480 : ru:Глава 6
00:44:45.080 : ru:Глава 7
00:53:56.800 : ru:Глава 8
01:00:50.800 : ru:Глава 9
01:11:22.840 : ru:Глава 10
01:19:32.920 : ru:Глава 11
01:30:45.280 : ru:Глава 12
01:39:33.680 : ru:Глава 13
01:46:51.600 : ru:Глава 14
01:55:10.880 : ru:Глава 15
02:03:11.720 : ru:Глава 16

 
Не забывайте говорить Спасибо. Не уходите с раздачи!   
Торрент: Зарегистрирован [12 авг 2018, 16:25] Скачать торрент
Скачать торрент
[ Размер 21.68 КБ / Просмотров 2 ]
Статус:
Проверен
 
.torrent скачан: 0 раз
Хэш: 4f66540185e2ab6b8d3bbd1c42fdaf334259b10c
Размер: 4.14 ГБ (4 443 378 856 байт)
Стать Автором раздачи
 
 
Раздал: 0 байт
Скачал: 0 байт
Ратио: Inf.
Сообщения: 41070
Зарегистрирован: 05 окт 2014, 15:23


  • Похожие торренты
    Ответы
    Просмотры
    Последнее сообщение

Вернуться в Кино СССР, Советской России, Российской республики (1917-1991)

Ресурс не предоставляет электронные версии произведений, а занимается лишь коллекционированием и каталогизацией ссылок, присылаемых и публикуемых на форуме нашими читателями. Если вы являетесь правообладателем какого-либо представленного материала и не желаете чтобы ссылка на него находилась в нашем каталоге, свяжитесь с нами и мы незамедлительно удалим её. Файлы для обмена на трекере предоставлены пользователями сайта, и администрация не несёт ответственности за их содержание. Просьба не заливать файлы, защищенные авторскими правами, а также файлы нелегального содержания!
cron