Берегись автомобиля (1966) BDRemux 1080p | Цветная версия

 
 Статистика раздачи 
Размер: 13.97 ГБ   |  Зарегистрирован: 11 авг 2018, 04:34   |   .torrent скачан: 0 раз
Сидеров: 1  [ 0 байт/сек ]     Личеров: 0  [ 0 байт/сек ]  
  

Берегись автомобиля (1966) BDRemux 1080p | Цветная версия

Сообщение apple2000 » 11 авг 2018, 05:02

Информация о фильме
Название: Берегись автомобиля
Год выпуска: 1966
Жанр: Мелодрама, комедия, криминал
Режиссёр: Эльдар Рязанов
В ролях: Иннокентий Смоктуновский, Олег Ефремов (I), Андрей Миронов, Анатолий Папанов, Любовь Добржанская, Ольга Аросева, Георгий Жжёнов, Татьяна Гаврилова, Евгений Евстигнеев, Донатас Банионис

Описание:
Эта удивительная история вполне может считаться фантастической. Скромный и застенчивый страховой агент, актер самодеятельного театра Юрий Деточкин оказывается непримиримым борцом за справедливость.
Правда, для правосудия, представляемого актером того же театра, а в миру — следователем Подберезовиковым, этот Робин Гуд представляется опасным, хитроумным, изобретательным и неуловимым преступником…



Страна: СССР
Студия: Мосфильм
Продолжительность: 1:34:07
Язык: Русский

Файл
Формат: MKV
Качество: BDRemux 1080p
Видео: 1920x1080 (16:9), 23,976 fps, MPEG-4 AVC ~ 18,5 Мbps avg, 0.372 bit/pixel
Звук: AC3, 48 kHz, 6 ch, ~448.00 kbps avg | русский |
Звук: LPCM, 48 kHz, 2 ch, ~2304.00 kbps avg | русский |

Субтитры: Отсутствуют
Семпл

Общее
Уникальный идентификатор : 291029971758021466010659710516679669670 (0xDAF2556F7ACA8A6F72BF4313E76FF7A6)
Полное имя : Beregis.avtomobilya.1966.1080p.Blu.Ray.Remux.DD.5.1.mkv
Формат : Matroska
Версия формата : Version 4 / Version 2
Размер файла : 14,0 Гбайт
Продолжительность : 1 ч. 34 м.
Режим общего битрейта : Переменный
Общий поток : 21,2 Мбит/сек
Дата кодирования : UTC 2018-08-11 00:58:48
Программа кодирования : mkvmerge v20.0.0 ('I Am The Sun') 64-bit
Библиотека кодирования : libebml v1.3.5 + libmatroska v1.4.8

Видео
Идентификатор : 1
Формат : AVC
Формат/Информация : Advanced Video Codec
Профиль формата : High@L4.1
Настройки формата : CABAC / 4 Ref Frames
Параметр CABAC формата : Да
Параметр RefFrames формата : 4 кадра
Параметр GOP формата : M=3, N=24
Идентификатор кодека : V_MPEG4/ISO/AVC
Продолжительность : 1 ч. 34 м.
Вид битрейта : Переменный
Битрейт : 18,5 Мбит/сек
Максимальный битрейт : 25,0 Мбит/сек
Ширина : 1920 пикселей
Высота : 1080 пикселей
Соотношение сторон : 16:9
Режим частоты кадров : Постоянный
Частота кадров : 23,976 (24000/1001) кадра/сек
Стандарт вещания : NTSC
Цветовое пространство : YUV
Субдискретизация насыщенности : 4:2:0
Битовая глубина : 8 бит
Тип развёртки : Прогрессивная
Бит/(Пиксели*Кадры) : 0.372
Размер потока : 12,2 Гбайт (87%)
Default : Да
Forced : Нет
Цветовой диапазон : Limited
Основные цвета : BT.709
Характеристики трансфера : BT.709
Коэффициенты матрицы : BT.709

Аудио #1
Идентификатор : 2
Формат : AC-3
Формат/Информация : Audio Coding 3
Идентификатор кодека : A_AC3
Продолжительность : 1 ч. 34 м.
Вид битрейта : Постоянный
Битрейт : 448 Кбит/сек
Каналы : 6 каналов
Расположение каналов : Front: L C R, Side: L R, LFE
Частота : 48,0 КГц
Частота кадров : 31,250 кадров/сек (1536 SPF)
Битовая глубина : 16 бит
Метод сжатия : С потерями
Размер потока : 302 Мбайт (2%)
Язык : Russian
Default : Да
Forced : Да

Аудио #2
Идентификатор : 3
Формат : PCM
Настройки формата : Little / Signed
Идентификатор кодека : A_PCM/INT/LIT
Продолжительность : 1 ч. 34 м.
Вид битрейта : Постоянный
Битрейт : 2304 Кбит/сек
Каналы : 2 канала
Частота : 48,0 КГц
Частота кадров : 200,000 кадров/сек (240 SPF)
Битовая глубина : 24 бит
Размер потока : 1,51 Гбайт (11%)
Язык : Russian
Default : Нет
Forced : Нет
 
Не забывайте говорить Спасибо. Не уходите с раздачи!   
Торрент: Зарегистрирован [11 авг 2018, 04:34] Скачать торрент
Скачать торрент
[ Размер 35.89 КБ / Просмотров 2 ]
Статус:
Проверен
 
.torrent скачан: 0 раз
Хэш: dc7651a44ab5a92bfc79383790f1927e366ef0ca
Размер: 13.97 ГБ (15 002 186 095 байт)
Стать Автором раздачи
 
 
Раздал: 0 байт
Скачал: 0 байт
Ратио: Inf.
Сообщения: 41074
Зарегистрирован: 05 окт 2014, 15:23


  • Похожие торренты
    Ответы
    Просмотры
    Последнее сообщение

Вернуться в Кино СССР, Советской России, Российской республики (1917-1991)

Ресурс не предоставляет электронные версии произведений, а занимается лишь коллекционированием и каталогизацией ссылок, присылаемых и публикуемых на форуме нашими читателями. Если вы являетесь правообладателем какого-либо представленного материала и не желаете чтобы ссылка на него находилась в нашем каталоге, свяжитесь с нами и мы незамедлительно удалим её. Файлы для обмена на трекере предоставлены пользователями сайта, и администрация не несёт ответственности за их содержание. Просьба не заливать файлы, защищенные авторскими правами, а также файлы нелегального содержания!
cron