Песня первой любви (1958) SATRip от New-Team

 
 Статистика раздачи 
Размер: 745.63 МБ   |  Зарегистрирован: 10 авг 2018, 12:28   |   .torrent скачан: 0 раз
Сидеров: 1  [ 0 байт/сек ]     Личеров: 0  [ 0 байт/сек ]  
  

Песня первой любви (1958) SATRip от New-Team

Сообщение apple2000 » 10 авг 2018, 13:14


Мы "В КОНТАКТЕ"


Страна: СССР
Производство: Арменфильм

Жанр: мюзикл, мелодрама
Год выпуска: 1958
Продолжительность: 01:37:22

Перевод: Не требуется
Cубтитры: нет
Оригинальная аудиодорожка: русский

Режиссер: Лаэрт Вагаршян, Юрий Ерзинкян

В ролях:
Хорен Абрамян, Грачья Нерсесян, Вагарш Вагаршян, Элеонора Судакова, Семён Соколовский, Ольга Гулазян, Тамара Ланько, Николай Тер-Семенов, Верджалуйс Мириджанян, Ара (Арий) Согомонян, Иван Грикуров, Адиль Селимханов, Гурген Ген, Амасий Мартиросян, Татул Дилакян, Т. Бахшинян...
Об актёрах подробней

Описание:
Этот фильм - классическая, очень профессионально сделанная мелодрама. Картина получила признание зрителей не только благодаря прекрасной игре актёров, но и запоминающимся песням. Это был первый советский послевоенный фильм, в котором прозвучал джаз. Исполнителем основной песни фильма, которая дала ему название, является Сергей Давидян. Автором музыки этой песни, как и популярных до сих пор песен «Еревани сирун ахчик» («Ереванская красавица»), «Им Ереван» («Мой Ереван»), «Ду им сиро арев» («Ты всех милей и нежней»), также звучащим в этой ленте, является Арно Бабаджанян. Впоследствии песня «Первой любви» стала одним из шлягеров конца 50-х годов и почти ежедневно звучала по радио в исполнении Рашида Бейбутова. Среди современных исполнителей песни следует отметить Александра Буйнова.
Фильм стал лидером проката 1958 г. - 24,6 млн зрителей.





Источник: DVB
Качество видео: SATRip
Формат видео: AVI

Видео: 576x432 (4:3), 25 fps, XviD ~ 933 kbps avg, 0.150 bit/pixel
Аудио: 48 kHz, MP3 2.0, 128 kbps

Раздача от:
Общее
Полное имя : Pesnya.pervoy.lyubvi.1958.SATRip-745_[New-team]_by_AVP_Studio.avi
Формат : AVI
Формат/Информация : Audio Video Interleave
Размер файла : 746 Мбайт
Продолжительность : 1 ч. 37 м.
Общий поток : 1071 Кбит/сек
Программа кодирования : VirtualDubMod 1.5.10.3 | www.virtualdub-fr.org || (build 2550/release)
Библиотека кодирования : VirtualDubMod build 2550/release

Видео
Идентификатор : 0
Формат : MPEG-4 Visual
Профиль формата : Advanced Simple@L5
Параметр BVOP формата : 1
Параметр QPel формата : Нет
Параметр GMC формата : Без точки перехода
Параметр матрицы формата : Выборочная
Идентификатор кодека : XVID
Идентификатор кодека/Подсказка : XviD
Продолжительность : 1 ч. 37 м.
Битрейт : 933 Кбит/сек
Ширина : 576 пикселей
Высота : 432 пикселя
Соотношение сторон : 4:3
Частота кадров : 25,000 кадров/сек
Цветовое пространство : YUV
Субдискретизация насыщенности : 4:2:0
Битовая глубина : 8 бит
Тип развёртки : Прогрессивная
Метод сжатия : С потерями
Бит/(Пиксели*Кадры) : 0.150
Размер потока : 650 Мбайт (87%)
Библиотека кодирования : XviD 73

Аудио
Идентификатор : 1
Формат : MPEG Audio
Версия формата : Version 1
Профиль формата : Layer 3
Идентификатор кодека : 55
Идентификатор кодека/Подсказка : MP3
Продолжительность : 1 ч. 37 м.
Вид битрейта : Постоянный
Битрейт : 128 Кбит/сек
Каналы : 2 канала
Частота : 48,0 КГц
Метод сжатия : С потерями
Размер потока : 89,2 Мбайт (12%)
Выравнивание : Соединение по промежуткам
Продолжительность промежутка : 40 мс. (1,00 видеокадр)
Время предзагрузки промежутка : 504 мс.
Библиотека кодирования : LAME3.99r
Настройки программы : -m s -V 4 -q 2 -lowpass 17 -b 128


 
Не забывайте говорить Спасибо. Не уходите с раздачи!   
Торрент: Зарегистрирован [10 авг 2018, 12:28] Скачать торрент
Скачать торрент
[ Размер 15.91 КБ / Просмотров 1 ]
Статус:
Проверен
 
.torrent скачан: 0 раз
Хэш: 9a6eff2baee087875f134280879a44a5072b0921
Размер: 745.63 МБ (781 846 528 байт)
Стать Автором раздачи
 
 
Раздал: 0 байт
Скачал: 0 байт
Ратио: Inf.
Сообщения: 40648
Зарегистрирован: 05 окт 2014, 15:23


  • Похожие торренты
    Ответы
    Просмотры
    Последнее сообщение

Вернуться в Кино СССР, Советской России, Российской республики (1917-1991)

Ресурс не предоставляет электронные версии произведений, а занимается лишь коллекционированием и каталогизацией ссылок, присылаемых и публикуемых на форуме нашими читателями. Если вы являетесь правообладателем какого-либо представленного материала и не желаете чтобы ссылка на него находилась в нашем каталоге, свяжитесь с нами и мы незамедлительно удалим её. Файлы для обмена на трекере предоставлены пользователями сайта, и администрация не несёт ответственности за их содержание. Просьба не заливать файлы, защищенные авторскими правами, а также файлы нелегального содержания!
cron