Охотник за головами / The Bounty Hunter (2010) WEB-DLRip-AVC | Open Matte | D

 
 Статистика раздачи 
Размер: 2.18 ГБ   |  Зарегистрирован: 08 авг 2018, 20:26   |   .torrent скачан: 0 раз
Сидеров: 1  [ 0 байт/сек ]     Личеров: 0  [ 0 байт/сек ]  
  

Охотник за головами / The Bounty Hunter (2010) WEB-DLRip-AVC | Open Matte | D

Сообщение Nasty » 08 авг 2018, 21:21

Информация о фильме
Название: Охотник за головами
Оригинальное название: The Bounty Hunter
Год выхода: 2010
Жанр: боевик, комедия, мелодрама, криминал
Режиссер: Энди Теннант / Andy Tennant
В ролях: Джерард Батлер, Дженнифер Энистон, Джио Перез, Джоэль Гарлэнд, Джейсон Колотурос, Мэтт Мэллой, Джейсон Судейкис, Адам Роуз, Кристин Барански, Дориан Миссик

О фильме:
Главный герой - Майло, бывший полицейский, а теперь охотник за головами, занимающийся розыском беглых преступников. Он получает задание найти и отправить в тюрьму журналистку Николь, сбежавшую из-под залога. Ирония ситуации в том, что Николь - бывшая жена Майло.



Страна: США
Продолжительность: 01:50:52
Перевод: Профессиональный (полное дублирование) - BluRay
Субтитры: Русские (надписи)

Файл
Качество: WEB-DLRip-AVC | Amazon | "STARZ" | Open Matte
Формат: MKV
Видео: High@L4.1, 1024x576, 23.976fps, ~2173Kbps
Аудио: 48 kHz, AC3,3/2 (L,C,R,l,r) + LFE ch, ~640.00 kbps
Субтитры: SoftSub (SRT)

Blu-ray vs Open Matte

x264 info: frame I:1628 Avg QP:16.39 size: 75775
x264 info: frame P:45114 Avg QP:18.75 size: 21186
x264 info: frame B:112748 Avg QP:20.47 size: 6447
x264 info: consecutive B-frames: 4.4% 6.3% 11.1% 57.0% 10.1% 9.1% 0.8% 0.8% 0.1% 0.1% 0.1%

General
Unique ID : 39609275609733975650851740770238485837 (0x1DCC781033C972DFF5BAECA04F10554D)
Complete name : E:ВИДЕО_2Охотник за головами_2010_WEB_DLRIP-AVC_O.M_[-=DoMiNo=-].mkv
Format : Matroska
Format version : Version 4 / Version 2
File size : 2.18 GiB
Duration : 1 h 50 min
Overall bit rate : 2 815 kb/s
Movie name : Охотник за головами
Deion : Главный герой — Майло, бывший полицейский, а теперь охотник за головами, занимающийся розыском беглых преступников. Он получает задание найти и отправить в тюрьму журналистку Николь, сбежавшую из-под залога. Ирония ситуации в том, что Николь — бывшая жена Майло.
Writing application : XviD4PSP 7.0.455 DAILY
Writing library : Lavf57.71.100
ErrorDetectionType : Per level 1
Attachments : poster.jpg
ACTORS : Gerard Butler, Jennifer Aniston, Gio Perez, Siobhan Fallon Hogan, Joel Garland, Jason Kolotouros, Matt Malloy, Jason Sudeikis, Adam Rose, Christine Baranski, Dorian Missick, David Costabile, Lynda Gravatt, Peter Greene, Jeff Garlin, Charlie Hewson, Charles Techman, Lou Sumrall
COUNTRY : United States
DATE : 2010-03-16
DIRECTOR : Andy Tennant
GENRE : боевик, комедия, драма
HD_VIDEO : 1
ITUNEXTC : mpaa|PG-13|300|
Language : und
MEDIA_TYPE : 9
ORIGINAL_TITLE : The Bounty Hunter
PRODUCER : Neal H. Moritz
PUBLISHER : Columbia Pictures, Relativity Media, Original Film, Madhouse Entertainment
RATING : 6.69

Video
ID : 1
Format : AVC
Format/Info : Advanced Video Codec
Format profile : High@L4.1
Format settings : CABAC / 10 Ref Frames
Format settings, CABAC : Yes
Format settings, ReFrames : 10 frames
Codec ID : V_MPEG4/ISO/AVC
Duration : 1 h 50 min
Bit rate : 2 173 kb/s
Width : 1 024 pixels
Height : 576 pixels
Display aspect ratio : 16:9
Frame rate mode : Constant
Frame rate : 23.976 (24000/1001) FPS
Color space : YUV
Chroma subsampling : 4:2:0
Bit depth : 8 bits
Scan type : Progressive
Bits/(Pixel*Frame) : 0.154
Stream size : 1.64 GiB (75%)
Title : RIP_BY_-=DoMiNo=-
Writing library : x264 core 155 r2901M 7d0ff22
Encoding settings : cabac=1 / ref=10 / deblock=1:-1:-1 / analyse=0x3:0x133 / me=umh / subme=10 / psy=1 / psy_rd=1.00:0.10 / mixed_ref=1 / me_range=32 / chroma_me=1 / trellis=2 / 8x8dct=1 / cqm=0 / deadzone=21,11 / fast_pskip=1 / chroma_qp_offset=-3 / threads=6 / lookahead_threads=1 / sliced_threads=0 / nr=0 / decimate=1 / interlaced=0 / bluray_compat=0 / constrained_intra=0 / bframes=10 / b_pyramid=2 / b_adapt=2 / b_bias=0 / direct=3 / weightb=1 / open_gop=0 / weightp=2 / keyint=240 / keyint_min=24 / scenecut=40 / intra_refresh=0 / rc=2pass / mbtree=0 / bitrate=2173 / ratetol=1.0 / qcomp=0.60 / qpmin=0 / qpmax=69 / qpstep=4 / cplxblur=20.0 / qblur=0.5 / ip_ratio=1.40 / pb_ratio=1.30 / aq=3:1.00
Language : English
Default : Yes
Forced : No
Color range : Limited
Color primaries : BT.709
Transfer characteristics : BT.709
Matrix coefficients : BT.709

Audio
ID : 2
Format : AC-3
Format/Info : Audio Coding 3
Codec ID : A_AC3
Duration : 1 h 50 min
Bit rate mode : Constant
Bit rate : 640 kb/s
Channel(s) : 6 channels
Channel positions : Front: L C R, Side: L R, LFE
Sampling rate : 48.0 kHz
Frame rate : 31.250 FPS (1536 SPF)
Bit depth : 16 bits
Compression mode : Lossy
Stream size : 508 MiB (23%)
Title : AC3 5.1 640Kbps (Дубляж - BluRay)
Language : Russian
Service kind : Complete Main
Default : Yes
Forced : No

Text
ID : 3
Format : UTF-8
Codec ID : S_TEXT/UTF8
Codec ID/Info : UTF-8 Plain Text
Title : Надписи
Language : Russian
Default : Yes
Forced : No

Menu
00:00:00.000 : :Глава 1
00:10:22.872 : :Глава 2
00:21:11.353 : :Глава 3
00:31:52.077 : :Глава 4
00:42:11.446 : :Глава 5
00:52:38.906 : :Глава 6
01:03:09.160 : :Глава 7
01:13:33.617 : :Глава 8
01:24:03.622 : :Глава 9
01:34:52.979 : :Глава 10
01:45:18.395 : :Глава 11
 
Не забывайте говорить Спасибо. Не уходите с раздачи!   
Торрент: Зарегистрирован [08 авг 2018, 20:26] Для скачивания .torrent
необходима регистрация
Или скачать с помощью
MediaGet
Статус:
Проверен
 
.torrent скачан: 0 раз
Хэш: fd6b32c398362984a2776a4a2c7c49c1ffad479d
Размер: 2.18 ГБ (2 340 739 313 байт)
Стать Автором раздачи
 
 
Раздал: 100 ГБ
Скачал: 0 байт
Ратио: Seed.
Сообщения: 23329
Зарегистрирован: 09 апр 2015, 19:56


  • Похожие торренты
    Ответы
    Просмотры
    Последнее сообщение

Вернуться в Зарубежные фильмы 2006-2010 года

Ресурс не предоставляет электронные версии произведений, а занимается лишь коллекционированием и каталогизацией ссылок, присылаемых и публикуемых на форуме нашими читателями. Если вы являетесь правообладателем какого-либо представленного материала и не желаете чтобы ссылка на него находилась в нашем каталоге, свяжитесь с нами и мы незамедлительно удалим её. Файлы для обмена на трекере предоставлены пользователями сайта, и администрация не несёт ответственности за их содержание. Просьба не заливать файлы, защищенные авторскими правами, а также файлы нелегального содержания!
cron