Пристрели их / Shoot 'Em Up (2007) WEB-DLRip-AVC | Open Matte | D

 
 Статистика раздачи 
Размер: 2.18 ГБ   |  Зарегистрирован: 08 авг 2018, 11:25   |   .torrent скачан: 0 раз
Сидеров: 1  [ 0 байт/сек ]     Личеров: 0  [ 0 байт/сек ]  
  

Пристрели их / Shoot 'Em Up (2007) WEB-DLRip-AVC | Open Matte | D

Сообщение Lester » 08 авг 2018, 12:15




Информация о фильме
Название: Пристрели их
Оригинальное название: Shoot 'Em Up
Год выхода: 2007
Жанр: Боевик, триллер, комедия, криминал
Режиссер: Майкл Дэвис

В ролях: Клайв Оуэн, Пол Джаматти, Моника Беллуччи, Стивен МакХэтти, Грег Брайк, Дэниэл Пилон, Сидни Менде-Гибсон, Лукас Менде-Гибсон, Кейлин Йеллоулис, Рамона Прингл, Джулиан Ричингс, Тони Манч, Скотт МакКорд, Уайли М. Пикетт, Стивен Харт, Дэвид Ури, Майк Рэйд, Энди МакКензи, Лаура ДеКартере, Райан Финн

О фильме:
Изгой, живущий воспоминаниями о собственном трагическом прошлом, спасает от верной смерти грудного младенца, оказавшись впутанным в правительственный заговор. Вместе с проституткой, ублажающей фантазии клиентов о грудном вскармливании и берущей на себя заботу о малыше, герой отсчитывает последние деньки двух коррумпированных чиновников.



Страна: США
Студия: Angry Films, New Line Cinema
Продолжительность: 01:26:43
Перевод: Профессиональный дублированный
Субтитры: Русские

Файл
Тип релиза: WEB-DLRip-AVC | Open Matte | Amazon
Контейнер: MKV
Видео: High@L4.1, 1024x576, 23.976fps, ~3149 Kbps
Аудио: 48 kHz, AC3, 3/2 (L,C,R,l,r) + LFE ch, ~448.00 kbps
Формат субтитров: softsub (SRT)
Blu-ray vs Open Matte


General
Unique ID : 137836833926856178917583201289573200811 (0x67B268995972D751C14DE1EACE0373AB)
Complete name : F:КиношкаПристрели их_2007_WEB_DLRIP-AVC_O.M_[-=DoMiNo=-].mkv
Format : Matroska
Format version : Version 4 / Version 2
File size : 2.18 GiB
Duration : 1 h 26 min
Overall bit rate : 3 596 kb/s
Movie name : Пристрели их
Deion : Изгой, живущий воспоминаниями о собственном трагическом прошлом, спасает от верной смерти грудного младенца, оказавшись впутанным в правительственный заговор. Вместе с проституткой, ублажающей фантазии клиентов о грудном вскармливании и берущей на себя заботу о малыше, герой отсчитывает последние деньки двух коррумпированных чиновников.
Writing application : XviD4PSP 7.0.455 DAILY
Writing library : Lavf57.71.100
ErrorDetectionType : Per level 1
Attachments : poster.jpg
ACTORS : Clive Owen, Monica Bellucci, Paul Giamatti, Stephen McHattie, Greg Bryk, Daniel Pilon, Sidney Mende-Gibson, Lucas Mende-Gibson, Kaylyn Yellowlees, Ramona Pringle, Julian Richings, Tony Munch, Scott McCord
COUNTRY : United States
DATE : 2007-07-26
DIRECTOR : Michael Davis
GENRE : боевик, триллер, комедия, криминал
HD_VIDEO : 1
ITUNEXTC : mpaa|R|400|
Language : und
MEDIA_TYPE : 9
ORIGINAL_TITLE : Shoot 'Em Up
PRODUCER : Rick Benattar, Susan Montford, Don Murphy, Jeff Katz
PUBLISHER : New Line Cinema, Angry Films
RATING : 6.95
WRITER : Michael Davis

Video
ID : 1
Format : AVC
Format/Info : Advanced Video Codec
Format profile : High@L4.1
Format settings : CABAC / 10 Ref Frames
Format settings, CABAC : Yes
Format settings, ReFrames : 10 frames
Codec ID : V_MPEG4/ISO/AVC
Duration : 1 h 26 min
Bit rate : 3 149 kb/s
Width : 1 024 pixels
Height : 576 pixels
Display aspect ratio : 16:9
Frame rate mode : Constant
Frame rate : 23.976 (24000/1001) FPS
Color space : YUV
Chroma subsampling : 4:2:0
Bit depth : 8 bits
Scan type : Progressive
Bits/(Pixel*Frame) : 0.223
Stream size : 1.86 GiB (86%)
Title : RIP_BY_-=DoMiNo=-
Writing library : x264 core 155 r2901M 7d0ff22
Encoding settings : cabac=1 / ref=10 / deblock=1:-1:-1 / analyse=0x3:0x133 / me=umh / subme=10 / psy=1 / psy_rd=1.00:0.00 / mixed_ref=1 / me_range=32 / chroma_me=1 / trellis=2 / 8x8dct=1 / cqm=0 / deadzone=21,11 / fast_pskip=1 / chroma_qp_offset=-2 / threads=6 / lookahead_threads=1 / sliced_threads=0 / nr=0 / decimate=1 / interlaced=0 / bluray_compat=0 / constrained_intra=0 / bframes=10 / b_pyramid=2 / b_adapt=2 / b_bias=0 / direct=3 / weightb=1 / open_gop=0 / weightp=2 / keyint=240 / keyint_min=24 / scenecut=40 / intra_refresh=0 / rc=2pass / mbtree=0 / bitrate=3149 / ratetol=1.0 / qcomp=0.60 / qpmin=0 / qpmax=69 / qpstep=4 / cplxblur=20.0 / qblur=0.5 / ip_ratio=1.40 / pb_ratio=1.30 / aq=3:1.00
Default : Yes
Forced : Yes
Color range : Limited
Color primaries : BT.709
Transfer characteristics : BT.709
Matrix coefficients : BT.709

Audio
ID : 2
Format : AC-3
Format/Info : Audio Coding 3
Codec ID : A_AC3
Duration : 1 h 26 min
Bit rate mode : Constant
Bit rate : 448 kb/s
Channel(s) : 6 channels
Channel positions : Front: L C R, Side: L R, LFE
Sampling rate : 48.0 kHz
Frame rate : 31.250 FPS (1536 SPF)
Bit depth : 16 bits
Compression mode : Lossy
Stream size : 278 MiB (12%)
Title : Дубляж
Language : Russian
Service kind : Complete Main
Default : Yes
Forced : No

Text
ID : 3
Format : UTF-8
Codec ID : S_TEXT/UTF8
Codec ID/Info : UTF-8 Plain Text
Title : R5
Language : Russian
Default : Yes
Forced : No

Menu
00:00:00.000 : :Глава 1
00:08:05.694 : :Глава 2
00:16:00.751 : :Глава 3
00:24:46.151 : :Глава 4
00:33:10.113 : :Глава 5
00:41:13.930 : :Глава 6
00:49:11.407 : :Глава 7
00:57:23.982 : :Глава 8
01:05:45.233 : :Глава 9
01:14:14.909 : :Глава 10
01:21:46.819 : :Глава 11





 
Не забывайте говорить Спасибо. Не уходите с раздачи!   
Торрент: Зарегистрирован [08 авг 2018, 11:25] Для скачивания .torrent
необходима регистрация
Или скачать с помощью
MediaGet
Статус:
Проверен
 
.torrent скачан: 0 раз
Хэш: d3d8feaec51e7229eb8cbcaab7c0515ea15a0135
Размер: 2.18 ГБ (2 338 874 401 байт)
Стать Автором раздачи
 
 
Раздал: 100 ГБ
Скачал: 0 байт
Ратио: Seed.
Сообщения: 119728
Зарегистрирован: 09 апр 2015, 23:00


  • Похожие торренты
    Ответы
    Просмотры
    Последнее сообщение

Вернуться в Зарубежные фильмы 2006-2010 года

Ресурс не предоставляет электронные версии произведений, а занимается лишь коллекционированием и каталогизацией ссылок, присылаемых и публикуемых на форуме нашими читателями. Если вы являетесь правообладателем какого-либо представленного материала и не желаете чтобы ссылка на него находилась в нашем каталоге, свяжитесь с нами и мы незамедлительно удалим её. Файлы для обмена на трекере предоставлены пользователями сайта, и администрация не несёт ответственности за их содержание. Просьба не заливать файлы, защищенные авторскими правами, а также файлы нелегального содержания!
cron