Держи ритм / Take the Lead (2006) WEB-DL 1080p от KORSAR | P, P2, A

 
 Статистика раздачи 
Размер: 12.51 ГБ   |  Зарегистрирован: 07 авг 2018, 06:13   |   .torrent скачан: 0 раз
Сидеров: 1  [ 0 байт/сек ]     Личеров: 0  [ 0 байт/сек ]  
  

Держи ритм / Take the Lead (2006) WEB-DL 1080p от KORSAR | P, P2, A

Сообщение Lester » 07 авг 2018, 06:55

Информация о фильме
Название: Держи ритм
Оригинальное название: Take the Lead
Год выпуска: 2006
Выпущено: США, New Line Cinema, Tiara Blu Films
Жанр: Драма, реальные события
Режиссер: Лиз Фридлендер
В ролях: Антонио Бандерас, Роб Браун, Йайа ДаКоста, Элфри Вудард, Джон Ортиз, Лора Бенанти, Джонатан Мэйлен, Джесика Николь, Шоуэнд МакКензи, Данте Баско

О фильме:
Профессиональный танцор решает обучить своему таланту учащихся Нью-Йоркской общеобразовательной школы. Поначалу его представление о танцах расходится с пристрастиями юных подопечных, но вскоре они создают совершенно новый танцевальный стиль. Конечно Антонио Бандерас, учитель бальных танцев, который своей любовью и неравнодушием смог зажечь в сердцах наших героев любовь и надежду на светлое будущее. Фильм очень символичный, так как показывает, что самое главное чему нужно учить детей это любви.

Продолжительность: 01:57:03
Перевод: Профессиональный многоголосый, профессиональный двухголосый, авторский
Субтитры: Русские, английские
Навигация по главам: Есть

Файл
Качество: WEB-DL 1080p
Видео: MPEG-4 AVC, 13,0 Мбит/сек, 1920x1080, 23,976 кадра/сек
Аудио #1: AC3, 6 ch, 448 Кбит/сек | Русский, профессиональный (многоголосый закадровый) Студия Пифагор
Аудио #2: AC3, 6 ch, 384 Кбит/сек | Русский, профессиональный (двухголосый закадровый)
Аудио #3: AC3, 6 ch, 448 Кбит/сек | Русский, авторский (одноголосый закадровый) Евгений Рудой
Аудио #4: AC3, 6 ch, 448 Кбит/сек | Английский, оригинал, DVD
Аудио #5: EAC3, 2 ch, 224 Кбит/сек | Английский, оригинал, WEB




Общее
Уникальный идентификатор : 246544931904532569346111988457918949043 (0xB97AD3A28ECBBF29935846F15FFBE6B3)
Полное имя : Держи.ритм.2006.WEB-DL.1080p.mkv
Формат : Matroska
Версия формата : Version 2
Размер файла : 12,5 Гбайт
Продолжительность : 1 ч. 57 м.
Режим общего битрейта : Переменный
Общий поток : 15,3 Мбит/сек
Дата кодирования : UTC 2018-08-06 23:15:53
Программа кодирования : mkvmerge v5.8.0 ('No Sleep / Pillow') built on Sep 2 2012 15:37:04
Библиотека кодирования : libebml v1.2.3 + libmatroska v1.3.0

Видео
Идентификатор : 1
Формат : AVC
Формат/Информация : Advanced Video Codec
Профиль формата : High@L4
Настройки формата : CABAC / 4 Ref Frames
Параметр CABAC формата : Да
Параметр RefFrames формата : 4 кадра
Идентификатор кодека : V_MPEG4/ISO/AVC
Продолжительность : 1 ч. 57 м.
Вид битрейта : Переменный
Битрейт : 13,0 Мбит/сек
Максимальный битрейт : 15,0 Мбит/сек
Ширина : 1920 пикселей
Высота : 1080 пикселей
Соотношение сторон : 16:9
Режим частоты кадров : Постоянный
Частота кадров : 23,976 (24000/1001) кадра/сек
Цветовое пространство : YUV
Субдискретизация насыщенности : 4:2:0
Битовая глубина : 8 бит
Тип развёртки : Прогрессивная
Бит/(Пиксели*Кадры) : 0.262
Размер потока : 10,7 Гбайт (85%)
Библиотека кодирования : x264 core 148 r2623 d5b2374
Настройки программы : cabac=1 / ref=4 / deblock=1:-1:-1 / analyse=0x3:0x133 / me=umh / subme=9 / psy=1 / psy_rd=1.00:0.15 / mixed_ref=1 / me_range=24 / chroma_me=1 / trellis=2 / 8x8dct=1 / cqm=0 / deadzone=21,11 / fast_pskip=1 / chroma_qp_offset=-3 / threads=34 / lookahead_threads=5 / sliced_threads=0 / nr=150 / decimate=1 / interlaced=0 / bluray_compat=0 / constrained_intra=0 / bframes=8 / b_pyramid=2 / b_adapt=2 / b_bias=0 / direct=3 / weightb=1 / open_gop=0 / weightp=2 / keyint=120 / keyint_min=61 / scenecut=0 / intra_refresh=0 / rc_lookahead=120 / rc=crf / mbtree=1 / crf=18.0 / qcomp=0.60 / qpmin=0 / qpmax=69 / qpstep=4 / vbv_maxrate=15000 / vbv_bufsize=31250 / crf_max=0.0 / nal_hrd=vbr / filler=0 / ip_ratio=1.40 / aq=3:1.00
Язык : English
По умолчанию : Да
Принудительно : Нет
Цветовой диапазон : Limited
Основные цвета : BT.709
Характеристики трансфера : BT.709
Коэффициенты матрицы : BT.709

Аудио #1
Идентификатор : 2
Формат : AC-3
Формат/Информация : Audio Coding 3
Идентификатор кодека : A_AC3
Продолжительность : 1 ч. 57 м.
Вид битрейта : Постоянный
Битрейт : 448 Кбит/сек
Каналы : 6 каналов
Расположение каналов : Front: L C R, Side: L R, LFE
Частота : 48,0 КГц
Частота кадров : 31,250 кадров/сек (1536 SPF)
Битовая глубина : 16 бит
Метод сжатия : С потерями
Размер потока : 375 Мбайт (3%)
Заголовок : MVO | Студия Пифагор
Язык : Russian
По умолчанию : Да
Принудительно : Нет

Аудио #2
Идентификатор : 3
Формат : AC-3
Формат/Информация : Audio Coding 3
Идентификатор кодека : A_AC3
Продолжительность : 1 ч. 57 м.
Вид битрейта : Постоянный
Битрейт : 384 Кбит/сек
Каналы : 6 каналов
Расположение каналов : Front: L C R, Side: L R, LFE
Частота : 48,0 КГц
Частота кадров : 31,250 кадров/сек (1536 SPF)
Битовая глубина : 16 бит
Метод сжатия : С потерями
Размер потока : 321 Мбайт (3%)
Заголовок : DVO
Язык : Russian
По умолчанию : Нет
Принудительно : Нет

Аудио #3
Идентификатор : 4
Формат : AC-3
Формат/Информация : Audio Coding 3
Идентификатор кодека : A_AC3
Продолжительность : 1 ч. 57 м.
Вид битрейта : Постоянный
Битрейт : 448 Кбит/сек
Каналы : 6 каналов
Расположение каналов : Front: L C R, Side: L R, LFE
Частота : 48,0 КГц
Частота кадров : 31,250 кадров/сек (1536 SPF)
Битовая глубина : 16 бит
Метод сжатия : С потерями
Размер потока : 375 Мбайт (3%)
Заголовок : AVO | Е. Рудой
Язык : Russian
По умолчанию : Нет
Принудительно : Нет

Аудио #4
Идентификатор : 5
Формат : AC-3
Формат/Информация : Audio Coding 3
Идентификатор кодека : A_AC3
Продолжительность : 1 ч. 57 м.
Вид битрейта : Постоянный
Битрейт : 448 Кбит/сек
Каналы : 6 каналов
Расположение каналов : Front: L C R, Side: L R, LFE
Частота : 48,0 КГц
Частота кадров : 31,250 кадров/сек (1536 SPF)
Битовая глубина : 16 бит
Метод сжатия : С потерями
Размер потока : 375 Мбайт (3%)
Заголовок : Original | 5.1
Язык : English
По умолчанию : Нет
Принудительно : Нет

Аудио #5
Идентификатор : 6
Формат : E-AC-3
Формат/Информация : Enhanced Audio Coding 3
Идентификатор кодека : A_EAC3
Продолжительность : 1 ч. 57 м.
Вид битрейта : Постоянный
Битрейт : 224 Кбит/сек
Каналы : 2 канала
Расположение каналов : Front: L R
Частота : 48,0 КГц
Частота кадров : 187,500 кадров/сек (256 SPF)
Метод сжатия : С потерями
Размер потока : 188 Мбайт (1%)
Заголовок : Original | 2.0
Язык : English
По умолчанию : Нет
Принудительно : Нет

Текст #1
Идентификатор : 7
Формат : UTF-8
Идентификатор кодека : S_TEXT/UTF8
Идентификатор кодека/Информация : UTF-8 Plain Text
Язык : Russian
По умолчанию : Нет
Принудительно : Нет

Текст #2
Идентификатор : 8
Формат : UTF-8
Идентификатор кодека : S_TEXT/UTF8
Идентификатор кодека/Информация : UTF-8 Plain Text
Язык : English
По умолчанию : Нет
Принудительно : Нет

Текст #3
Идентификатор : 9
Формат : UTF-8
Идентификатор кодека : S_TEXT/UTF8
Идентификатор кодека/Информация : UTF-8 Plain Text
Заголовок : SDH 1
Язык : English
По умолчанию : Нет
Принудительно : Нет

Текст #4
Идентификатор : 10
Формат : UTF-8
Идентификатор кодека : S_TEXT/UTF8
Идентификатор кодека/Информация : UTF-8 Plain Text
Заголовок : SDH 2
Язык : English
По умолчанию : Нет
Принудительно : Нет

Меню
00:00:00.000 : en:Opening Credits
00:03:17.427 : en:Galas
00:07:32.382 : en:Justice
00:11:59.149 : en:A True Gentleman
00:18:09.852 : en:An Introduction
00:25:59.371 : en:Chance To Absorb
00:30:18.747 : en:Welcome To The Foxtrot
00:36:43.381 : en:Check This Out
00:41:23.411 : en:White Bread
00:46:12.700 : en:Home Sweet Home
00:49:04.839 : en:Rip
01:01:39.376 : en:They Need Help
01:05:43.703 : en:Trust Is To Be Earned
01:16:05.324 : en:Concerned Parents
01:23:50.456 : en:Can You Feel It
01:29:32.597 : en:You're Welcome
01:34:55.036 : en:Please Don't Freak Out
01:47:59.119 : en:Lets Walk (End Titles)

• Исходник видео WEB-DL Amazon.

Сборка:
 
Не забывайте говорить Спасибо. Не уходите с раздачи!   
Торрент: Зарегистрирован [07 авг 2018, 06:13] Для скачивания .torrent
необходима регистрация
Или скачать с помощью
MediaGet
Статус:
Проверен
 
.torrent скачан: 0 раз
Хэш: 471a71d7b35a69d9eec41fe175cfa31a19941674
Размер: 12.51 ГБ (13 429 928 250 байт)
Стать Автором раздачи
 
 
Раздал: 100 ГБ
Скачал: 0 байт
Ратио: Seed.
Сообщения: 119728
Зарегистрирован: 09 апр 2015, 23:00


  • Похожие торренты
    Ответы
    Просмотры
    Последнее сообщение

Вернуться в Зарубежные фильмы 2006-2010 года

Ресурс не предоставляет электронные версии произведений, а занимается лишь коллекционированием и каталогизацией ссылок, присылаемых и публикуемых на форуме нашими читателями. Если вы являетесь правообладателем какого-либо представленного материала и не желаете чтобы ссылка на него находилась в нашем каталоге, свяжитесь с нами и мы незамедлительно удалим её. Файлы для обмена на трекере предоставлены пользователями сайта, и администрация не несёт ответственности за их содержание. Просьба не заливать файлы, защищенные авторскими правами, а также файлы нелегального содержания!
cron