Фантомная боль / Phantomschmerz (2009) BDRip 720p | P, L1

 
 Статистика раздачи 
Размер: 4.09 ГБ   |  Зарегистрирован: 06 авг 2018, 12:42   |   .torrent скачан: 0 раз
Сидеров: 1  [ 0 байт/сек ]     Личеров: 0  [ 0 байт/сек ]  
  

Фантомная боль / Phantomschmerz (2009) BDRip 720p | P, L1

Сообщение Lester » 06 авг 2018, 13:42

Информация о фильме
Название: Фантомная боль
Оригинальное название: Phantomschmerz
Год выпуска: 2009
Жанр: драма, биография
Режиссер: Маттиас Эмке
В ролях: Тиль Швайгер (Marc Sumner), Яна Палласке (Nika), Стипе Эрцег (Alexander), Луна Швайгер (Sarah), Алвара Хёфельс (Barmädchen), Эллени Сальво Гонсалес (Dunkelhaarige Affäre), Карина Визе (Exfrau von Marc), Годе Бенедикс (Vorarbeiter), Юлия Брендлер (Anna), Кида Рамадан (Deepak), Ханс-Хейнрих Хардт (Chef Fahrradladen), Рихард Заммель (Chefarzt)
О фильме: «Фантомная боль» мучает Марка, потерявшего ногу в автомобильной катастрофе. Ему больнее вдвойне: такого отчаянного велогонщика и любителя женщин еще нужно поискать. Увлекаясь не на шутку, он начисто терял чувство ответственности, даже по отношению к собственной дочери. И только авария повлияла на его «ощущение реальности».

Страна: Германия
Студия: barefoot films, Film1, Neue Bioskop Film
Продолжительность: 01:37:32
Перевод: Профессиональный (многоголосый, закадровый), Любительский (одноголосый, закадровый)
Файл
Качество: BDRip 720p
Формат: Matroska
Видео: 1280x544 at 23.976 fps, х264, ~4500 kbps avg
Аудио#1: Russian: 48 kHz, AC3, 3/2 (L,C,R,l,r) + LFE ch, ~448 kbps avg |Многоголосый закадровый, R5|
Аудио#2: Russian: 48 kHz, AC3, 3/2 (L,C,R,l,r) + LFE ch, ~448 kbps avg |Любительский, DeMon|
Аудио#3: English: 48 kHz, AC3, 3/2 (L,C,R,l,r) + LFE ch, ~448 kbps avg
Субтитры: Russian, English, German
***Сохранены оригинальные главы как на Blu-ray.
***Релиз: msltel.
Общее
Уникальный идентификатор : 187337827433592454945552145908804886158 (0x8CEFF4021A38663C8E3BA0FC86641E8E)
Полное имя : Фантомная боль.2009.BDRip.720p by msltel.mkv
Формат : Matroska
Версия формата : Version 4 / Version 2
Размер файла : 4,09 Гбайт
Продолжительность : 1 ч. 37 м.
Общий поток : 6000 Кбит/сек
Название фильма : Rip by msltel
Дата кодирования : UTC 2018-08-06 10:28:15
Программа кодирования : mkvmerge v8.2.0 ('World of Adventure') 64bit
Библиотека кодирования : libebml v1.3.1 + libmatroska v1.4.2

Видео
Идентификатор : 1
Формат : AVC
Формат/Информация : Advanced Video Codec
Профиль формата : High@L4.1
Параметр CABAC формата : Да
Параметр ReFrames формата : 9 кадров
Идентификатор кодека : V_MPEG4/ISO/AVC
Продолжительность : 1 ч. 37 м.
Битрейт : 4537 Кбит/сек
Ширина : 1280 пикселей
Высота : 544 пикселя
Соотношение сторон : 2,35:1
Режим частоты кадров : Постоянный
Частота кадров : 23,976 кадра/сек
Цветовое пространство : YUV
Субдискретизация насыщенности : 4:2:0
Битовая глубина : 8 бит
Тип развёртки : Прогрессивная
Бит/(Пиксели*Кадры) : 0.272
Размер потока : 3,09 Гбайт (76%)
Библиотека кодирования : x264 core 155 r2901 7d0ff22
Настройки программы : cabac=1 / ref=9 / deblock=1:-3:-2 / analyse=0x3:0x113 / me=umh / subme=11 / psy=1 / psy_rd=1.00:0.15 / mixed_ref=1 / me_range=32 / chroma_me=1 / trellis=2 / 8x8dct=1 / cqm=0 / deadzone=21,11 / fast_pskip=0 / chroma_qp_offset=-3 / threads=6 / lookahead_threads=1 / sliced_threads=0 / nr=0 / decimate=1 / interlaced=0 / bluray_compat=0 / constrained_intra=0 / bframes=7 / b_pyramid=2 / b_adapt=2 / b_bias=0 / direct=1 / weightb=1 / open_gop=0 / weightp=2 / keyint=230 / keyint_min=23 / scenecut=40 / intra_refresh=0 / rc_lookahead=40 / rc=crf / mbtree=1 / crf=18.5 / qcomp=0.60 / qpmin=0 / qpmax=69 / qpstep=4 / vbv_maxrate=62500 / vbv_bufsize=78125 / crf_max=0.0 / nal_hrd=none / filler=0 / ip_ratio=1.40 / aq=1:1.00
Язык : German
Default : Да
Forced : Нет

Аудио #1
Идентификатор : 2
Формат : AC-3
Формат/Информация : Audio Coding 3
Расширение режима : CM (complete main)
Параметр Endianness формата : Big
Идентификатор кодека : A_AC3
Продолжительность : 1 ч. 37 м.
Вид битрейта : Постоянный
Битрейт : 448 Кбит/сек
Каналы : 6 каналов
Расположение каналов : Front: L C R, Side: L R, LFE
Частота : 48,0 КГц
Битовая глубина : 16 бит
Метод сжатия : С потерями
Размер потока : 313 Мбайт (7%)
Заголовок : MVO
Язык : Russian
Default : Да
Forced : Нет

Аудио #2
Идентификатор : 3
Формат : AC-3
Формат/Информация : Audio Coding 3
Расширение режима : CM (complete main)
Параметр Endianness формата : Big
Идентификатор кодека : A_AC3
Продолжительность : 1 ч. 37 м.
Вид битрейта : Постоянный
Битрейт : 448 Кбит/сек
Каналы : 6 каналов
Расположение каналов : Front: L C R, Side: L R, LFE
Частота : 48,0 КГц
Битовая глубина : 16 бит
Метод сжатия : С потерями
Размер потока : 313 Мбайт (7%)
Заголовок : Demon
Язык : Russian
Default : Нет
Forced : Нет

Аудио #3
Идентификатор : 4
Формат : AC-3
Формат/Информация : Audio Coding 3
Расширение режима : CM (complete main)
Параметр Endianness формата : Big
Идентификатор кодека : A_AC3
Продолжительность : 1 ч. 37 м.
Вид битрейта : Постоянный
Битрейт : 448 Кбит/сек
Каналы : 6 каналов
Расположение каналов : Front: L C R, Side: L R, LFE
Частота : 48,0 КГц
Битовая глубина : 16 бит
Метод сжатия : С потерями
Размер потока : 313 Мбайт (7%)
Заголовок : original
Язык : German
Default : Нет
Forced : Нет

Текст #1
Идентификатор : 5
Формат : UTF-8
Идентификатор кодека : S_TEXT/UTF8
Идентификатор кодека/Информация : UTF-8 Plain Text
Заголовок : русские
Язык : Russian
Default : Нет
Forced : Нет

Текст #2
Идентификатор : 6
Формат : UTF-8
Идентификатор кодека : S_TEXT/UTF8
Идентификатор кодека/Информация : UTF-8 Plain Text
Заголовок : английские
Язык : English
Default : Нет
Forced : Нет

Текст #3
Идентификатор : 7
Формат : UTF-8
Идентификатор кодека : S_TEXT/UTF8
Идентификатор кодека/Информация : UTF-8 Plain Text
Заголовок : немецкие
Язык : German
Default : Нет
Forced : Нет

Меню
00:00:00.000 : :Chapter 1
00:05:55.229 : :Chapter 2
00:13:38.943 : :Chapter 3
00:22:57.041 : :Chapter 4
00:31:46.571 : :Chapter 5
00:42:07.650 : :Chapter 6
00:50:00.706 : :Chapter 7
00:57:26.776 : :Chapter 8
01:05:30.801 : :Chapter 9
01:16:37.968 : :Chapter 10
01:22:18.600 : :Chapter 11
01:32:11.943 : :Chapter 12
01:37:30.678 : :Chapter 13
 
Не забывайте говорить Спасибо. Не уходите с раздачи!   
Торрент: Зарегистрирован [06 авг 2018, 12:42] Скачать торрент
Скачать торрент
[ Размер 11.22 КБ / Просмотров 3 ]
Статус:
Проверен
 
.torrent скачан: 0 раз
Хэш: d4c9f9a41ae023a2d72de1d80fb2951ded904d7d
Размер: 4.09 ГБ (4 389 183 416 байт)
Стать Автором раздачи
 
 
Раздал: 100 ГБ
Скачал: 0 байт
Ратио: Seed.
Сообщения: 121533
Зарегистрирован: 09 апр 2015, 23:00


  • Похожие торренты
    Ответы
    Просмотры
    Последнее сообщение

Вернуться в Зарубежные фильмы 2006-2010 года

Ресурс не предоставляет электронные версии произведений, а занимается лишь коллекционированием и каталогизацией ссылок, присылаемых и публикуемых на форуме нашими читателями. Если вы являетесь правообладателем какого-либо представленного материала и не желаете чтобы ссылка на него находилась в нашем каталоге, свяжитесь с нами и мы незамедлительно удалим её. Файлы для обмена на трекере предоставлены пользователями сайта, и администрация не несёт ответственности за их содержание. Просьба не заливать файлы, защищенные авторскими правами, а также файлы нелегального содержания!
cron