Фантастическая четверка: Вторжение Серебряного серфера / 4: Rise of the Silver Surfer (2007) WEB-DLRip 720p от SuperMin | D | Open Matte

 
 Статистика раздачи 
Размер: 3.06 ГБ   |  Зарегистрирован: 06 авг 2018, 11:45   |   .torrent скачан: 0 раз
Сидеров: 1  [ 0 байт/сек ]     Личеров: 0  [ 0 байт/сек ]  
  

Фантастическая четверка: Вторжение Серебряного серфера / 4: Rise of the Silver Surfer (2007) WEB-DLRip 720p от SuperMin | D | Open Matte

Сообщение Lester » 06 авг 2018, 12:20

Информация о фильме
Название: Фантастическая четверка: Вторжение Серебряного серфера
Оригинальное название: 4: Rise of the Silver Surfer
Год выпуска: 2007
Жанр: фантастика, фэнтези, боевик, триллер, приключения
Режиссер: Тим Стори
В ролях: Йоан Гриффит (Mr. Fantastic), Джессика Альба (Invisible Woman), Крис Эванс (Human Torch), Майкл Чиклис (The Thing), Джулиан МакМэхон (Dr. Doom), Даг Джонс (The Silver Surfer), Лоренс Фишбёрн (The Silver Surfer), Керри Вашингтон (Alicia Masters), Андре Брогер (General Hager), Бо Гарретт (Captain Raye), Брайан Посен (Wedding Minister), Зэк Гренье (Mr. Sherman)

Фантастическая четверка получает вызов со стороны великого и могучего Серебряного Серфера - таинственного межгалактического вестника, который прилетает на Землю, чтобы подготовить ее к полному разрушению. Пока Серебряный Серфер носится по всему земному шару, разрушая все на своём пути, Рид, Сью, Джонни и Бен должны разгадать его тайну и найти способ противостоять внезапному появлению их смертельного врага - доктора Дума.



Страна: США, Германия, Великобритания
Студия: 1492 Pictures, 20th Century Fox Film Corporation
Продолжительность: 01:32:04
Перевод: Дубляж
Файл
Кодек: H.264
Качество: WEB-DLRip-720 от SuperMin
Видео: 1280x720 (16:9), 2902 kbps, 23.976 fps
Звук: Русский (AC-3, 6ch, 448 kbps)
Русский (DTS, 6ch, 755 kbps)
Английский (AC-3, 6ch, 640 kbps)
Субтитры: Русские, английские

Периодически появляется логотип STARZ

General
Unique ID : 219405910618828481150073603118583666753 (0xA5100A942F8D61E290103F7F24C25841)
Complete name : F:Фантастическая Четвёрка (Вторжение Серебрянного Сёрфера) (Open Matte).mkv
Format : Matroska
Format version : Version 4 / Version 2
File size : 3.06 GiB
Duration : 1 h 32 min
Overall bit rate : 4 761 kb/s
Movie name : Фантастическая четверка: Вторжение Серебряного серфера / 4: Rise of the Silver Surfer (2007) (Open Matte) - #LORDKILL#
Encoded date : UTC 2018-08-06 08:20:18
Writing application : mkvmerge v9.5.0 ('Quiet Fire') 64bit
Writing library : libebml v1.3.4 + libmatroska v1.4.5

Video
ID : 1
Format : AVC
Format/Info : Advanced Video Codec
Format profile : High@L4.1
Format settings, CABAC : Yes
Format settings, ReFrames : 9 frames
Codec ID : V_MPEG4/ISO/AVC
Duration : 1 h 32 min
Bit rate : 2 902 kb/s
Width : 1 280 pixels
Height : 720 pixels
Display aspect ratio : 16:9
Frame rate mode : Constant
Frame rate : 23.976 (24000/1001) FPS
Color space : YUV
Chroma subsampling : 4:2:0
Bit depth : 8 bits
Scan type : Progressive
Bits/(Pixel*Frame) : 0.131
Stream size : 1.87 GiB (61%)
Writing library : x264 core 146 r2538 121396c
Encoding settings : cabac=1 / ref=9 / deblock=1:-2:-2 / analyse=0x3:0x113 / me=umh / subme=11 / psy=1 / psy_rd=1.00:0.15 / mixed_ref=1 / me_range=32 / chroma_me=1 / trellis=2 / 8x8dct=1 / cqm=0 / deadzone=21,11 / fast_pskip=0 / chroma_qp_offset=-3 / threads=12 / lookahead_threads=2 / sliced_threads=0 / nr=0 / decimate=1 / interlaced=0 / bluray_compat=0 / constrained_intra=0 / bframes=8 / b_pyramid=2 / b_adapt=2 / b_bias=0 / direct=1 / weightb=1 / open_gop=0 / weightp=2 / keyint=240 / keyint_min=23 / scenecut=40 / intra_refresh=0 / rc=crf / mbtree=0 / crf=20.0 / qcomp=0.60 / qpmin=0 / qpmax=69 / qpstep=4 / ip_ratio=1.40 / pb_ratio=1.30 / aq=1:1.00
Default : Yes
Forced : No

Audio #1
ID : 2
Format : AC-3
Format/Info : Audio Coding 3
Mode extension : CM (complete main)
Format settings, Endianness : Big
Codec ID : A_AC3
Duration : 1 h 32 min
Bit rate mode : Constant
Bit rate : 448 kb/s
Channel(s) : 6 channels
Channel positions : Front: L C R, Side: L R, LFE
Sampling rate : 48.0 kHz
Frame rate : 31.250 FPS (1536 spf)
Bit depth : 16 bits
Compression mode : Lossy
Stream size : 295 MiB (9%)
Title : Дубляж - BluRay
Language : Russian
Default : Yes
Forced : No

Audio #2
ID : 3
Format : DTS
Format/Info : Digital Theater Systems
Mode : 16
Format settings, Endianness : Big
Codec ID : A_DTS
Duration : 1 h 32 min
Bit rate mode : Constant
Bit rate : 768 kb/s
Channel(s) : 6 channels
Channel positions : Front: L C R, Side: L R, LFE
Sampling rate : 48.0 kHz
Frame rate : 93.750 FPS (512 spf)
Bit depth : 24 bits
Compression mode : Lossy
Stream size : 506 MiB (16%)
Title : Дубляж - BluRay
Language : Russian
Default : No
Forced : No

Audio #3
ID : 4
Format : E-AC-3
Format/Info : Enhanced Audio Coding 3
Format settings, Endianness : Big
Codec ID : A_EAC3
Duration : 1 h 32 min
Bit rate mode : Constant
Bit rate : 640 kb/s
Channel(s) : 6 channels
Channel positions : Front: L C R, Side: L R, LFE
Sampling rate : 48.0 kHz
Frame rate : 187.500 FPS (256 spf)
Compression mode : Lossy
Stream size : 421 MiB (13%)
Title : Оригинал - Amazon
Language : English
Default : No
Forced : No

Text #1
ID : 5
Format : UTF-8
Codec ID : S_TEXT/UTF8
Codec ID/Info : UTF-8 Plain Text
Duration : 1 h 30 min
Bit rate : 71 b/s
Count of elements : 958
Stream size : 47.3 KiB (0%)
Language : Russian
Default : No
Forced : No

Text #2
ID : 6
Format : UTF-8
Codec ID : S_TEXT/UTF8
Codec ID/Info : UTF-8 Plain Text
Duration : 1 h 22 min
Bit rate : 49 b/s
Count of elements : 879
Stream size : 30.1 KiB (0%)
Language : English
Default : No
Forced : No

Text #3
ID : 7
Format : UTF-8
Codec ID : S_TEXT/UTF8
Codec ID/Info : UTF-8 Plain Text
Duration : 1 h 26 min
Bit rate : 59 b/s
Count of elements : 1148
Stream size : 37.8 KiB (0%)
Title : SDH, Amazon
Language : English
Default : No
Forced : No
 
Не забывайте говорить Спасибо. Не уходите с раздачи!   
Торрент: Зарегистрирован [06 авг 2018, 11:45] Скачать торрент
Скачать торрент
[ Размер 16.36 КБ / Просмотров 1 ]
Статус:
Проверен
 
.torrent скачан: 0 раз
Хэш: bdccd2d2b8f4679ea8fe254eeb074b7caf03369f
Размер: 3.06 ГБ (3 287 182 249 байт)
Стать Автором раздачи
 
 
Раздал: 100 ГБ
Скачал: 0 байт
Ратио: Seed.
Сообщения: 121533
Зарегистрирован: 09 апр 2015, 23:00


  • Похожие торренты
    Ответы
    Просмотры
    Последнее сообщение

Вернуться в Зарубежные фильмы 2006-2010 года

Ресурс не предоставляет электронные версии произведений, а занимается лишь коллекционированием и каталогизацией ссылок, присылаемых и публикуемых на форуме нашими читателями. Если вы являетесь правообладателем какого-либо представленного материала и не желаете чтобы ссылка на него находилась в нашем каталоге, свяжитесь с нами и мы незамедлительно удалим её. Файлы для обмена на трекере предоставлены пользователями сайта, и администрация не несёт ответственности за их содержание. Просьба не заливать файлы, защищенные авторскими правами, а также файлы нелегального содержания!
cron