Король вечеринок 2 / Van Wilder 2: The Rise of Taj (2006) WEB-DLRip-AVC от ExKinoRay | D

 
 Статистика раздачи 
Размер: 745.91 МБ   |  Зарегистрирован: 06 авг 2018, 08:01   |   .torrent скачан: 0 раз
Сидеров: 1  [ 0 байт/сек ]     Личеров: 0  [ 0 байт/сек ]  
  

Король вечеринок 2 / Van Wilder 2: The Rise of Taj (2006) WEB-DLRip-AVC от ExKinoRay | D

Сообщение Lester » 06 авг 2018, 08:53

Информация о фильме
Название: Король вечеринок 2
Оригинальное название: Van Wilder 2: The Rise of Taj
Год выхода: 2006
Жанр: Комедия, мелодрама
Режиссер: Морт Нэтан
В ролях: Кэл Пенн, Лорен Коэн, Дэниэл Персивал, Глен Бэрри, Энтони Козенс, Стивен Рэтман, Холли Дэвидсон, Том Дэвей

О фильме :
Тадж Бадаландабад только что закончил колледж и отправляется поступать в Оксфорд. Он мечтает пойти по стопам своего отца и не только получить ученую степень, но и стать членом закрытого лагеря «Братская гильдия лис и собак», следующим представителем Бадаландабадов, названных «Султаном простыней». Однако когда Тадж приезжает в Оксфорд, Пип Эверетт, Серый Граф, возглавляющий «Лис и собак», говорит ему, что произошла ошибка, и Тадж не принят в лагерь. Но Тадж не сдается и скоро становится главой альтернативной тусовки самых главных придурков Оксфорда – «Петух и быки». Кто же выиграет главный приз в соревнованиях Оксфорда и получит сердце красавицы Шарлотты?



Страна: США
Студия: Metro-Goldwyn-Mayer (MGM), Bauer Martinez Studios, Tapestry Films
Продолжительность: 01:37:25
Перевод: Профессиональный (полное дублирование) МОСФИЛЬМ-мастер

Файл
Формат: MKV
Качество: WEB-DLRip-AVC
Видео: MPEG-4 AVC, 768x412, ~ 993 Кбит/с
Аудио: AAC-HE, 2 ch, ~ 76 Кбит/с
Субтитры: Русские (форс.), английские

Общее
Уникальный идентификатор : 201946469106649187279458127543251027864 (0x97ED79A6CF7F277DB14972384B28C798)
Полное имя : D:MOVIESVan Wilder2. 2006. ExKinoRay.mkv
Формат : Matroska
Версия формата : Version 4 / Version 2
Размер файла : 746 Мбайт
Продолжительность : 1 ч. 37 м.
Общий поток : 1070 Кбит/сек
Дата кодирования : UTC 2018-08-06 04:32:00
Программа кодирования : mkvmerge v15.0.0 ('Duel with the Devil') 64-bit
Библиотека кодирования : libebml v1.3.5 + libmatroska v1.4.5

Видео
Идентификатор : 1
Формат : AVC
Формат/Информация : Advanced Video Codec
Профиль формата : High@L4.1
Параметр CABAC формата : Да
Параметр RefFrames формата : 12 кадров
Идентификатор кодека : V_MPEG4/ISO/AVC
Продолжительность : 1 ч. 37 м.
Битрейт : 993 Кбит/сек
Ширина : 768 пикселей
Высота : 412 пикселей
Соотношение сторон : 1,85:1
Режим частоты кадров : Постоянный
Частота кадров : 23,976 (24000/1001) кадра/сек
Цветовое пространство : YUV
Субдискретизация насыщенности : 4:2:0
Битовая глубина : 8 бит
Тип развёртки : Прогрессивная
Бит/(Пиксели*Кадры) : 0.131
Размер потока : 692 Мбайт (93%)
Библиотека кодирования : x264 core 152 r2851kMod ba24899
Настройки программы : cabac=1 / ref=12 / deblock=1:-3:-3 / analyse=0x3:0x133 / me=umh / subme=10 / psy=1 / fade_compensate=0.00 / psy_rd=1.00:0.17 / mixed_ref=1 / me_range=32 / chroma_me=1 / trellis=2 / 8x8dct=1 / cqm=0 / deadzone=21,11 / fast_pskip=0 / chroma_qp_offset=-3 / threads=6 / lookahead_threads=1 / sliced_threads=0 / nr=0 / decimate=0 / interlaced=0 / bluray_compat=0 / constrained_intra=0 / bframes=11 / b_pyramid=2 / b_adapt=2 / b_bias=0 / direct=3 / weightb=1 / open_gop=0 / weightp=2 / keyint=240 / keyint_min=23 / scenecut=40 / intra_refresh=0 / rc_lookahead=40 / rc=2pass / mbtree=1 / bitrate=993 / ratetol=1.0 / qcomp=0.60 / qpmin=0 / qpmax=69 / qpstep=4 / cplxblur=20.0 / qblur=0.5 / ip_ratio=1.40 / aq=3:1.00
Default : Да
Forced : Нет

Аудио
Идентификатор : 2
Формат : AAC
Формат/Информация : Advanced Audio Codec
Профиль формата : HE-AAC / LC
Идентификатор кодека : A_AAC
Продолжительность : 1 ч. 37 м.
Битрейт : 76,0 Кбит/сек
Каналы : 2 канала
Расположение каналов : Front: L R
Частота : 48,0 КГц / 24,0 КГц
Частота кадров : 23,438 кадра/сек (1024 SPF)
Метод сжатия : С потерями
Задержка видео : 31 мс.
Размер потока : 53,0 Мбайт (7%)
Язык : Russian
Default : Да
Forced : Нет

Текст #1
Идентификатор : 3
Формат : UTF-8
Идентификатор кодека : S_TEXT/UTF8
Идентификатор кодека/Информация : UTF-8 Plain Text
Продолжительность : 39 м. 53 с.
Битрейт : 18 бит/сек
ElementCount : 82
Размер потока : 5,52 Кбайт (0%)
Заголовок : Forced
Язык : Russian
Default : Да
Forced : Нет

Текст #2
Идентификатор : 4
Формат : UTF-8
Идентификатор кодека : S_TEXT/UTF8
Идентификатор кодека/Информация : UTF-8 Plain Text
Продолжительность : 1 ч. 31 м.
Битрейт : 76 бит/сек
ElementCount : 1347
Размер потока : 51,6 Кбайт (0%)
Язык : English
Default : Нет
Forced : Нет


 
Не забывайте говорить Спасибо. Не уходите с раздачи!   
Торрент: Зарегистрирован [06 авг 2018, 08:01] Скачать торрент
Скачать торрент
[ Размер 15.61 КБ / Просмотров 2 ]
Статус:
Проверен
 
.torrent скачан: 0 раз
Хэш: 6136a6a2c9e50d7691b02f11c42816c65c682df3
Размер: 745.91 МБ (782 146 196 байт)
Стать Автором раздачи
 
 
Раздал: 100 ГБ
Скачал: 0 байт
Ратио: Seed.
Сообщения: 122971
Зарегистрирован: 09 апр 2015, 23:00


  • Похожие торренты
    Ответы
    Просмотры
    Последнее сообщение

Вернуться в Зарубежные фильмы 2006-2010 года

Ресурс не предоставляет электронные версии произведений, а занимается лишь коллекционированием и каталогизацией ссылок, присылаемых и публикуемых на форуме нашими читателями. Если вы являетесь правообладателем какого-либо представленного материала и не желаете чтобы ссылка на него находилась в нашем каталоге, свяжитесь с нами и мы незамедлительно удалим её. Файлы для обмена на трекере предоставлены пользователями сайта, и администрация не несёт ответственности за их содержание. Просьба не заливать файлы, защищенные авторскими правами, а также файлы нелегального содержания!
cron