Невеста Бога воды / Habaekui Shinboo [01-16 из 16] (2017) HDTVRip 720p, HDTVRip 1080p | L2

 
 Статистика раздачи 
Размер: 26.56 ГБ   |  Зарегистрирован: 29 июл 2018, 16:57   |   .torrent скачан: 0 раз
Сидеров: 1  [ 0 байт/сек ]     Личеров: 0  [ 0 байт/сек ]  
  

Невеста Бога воды / Habaekui Shinboo [01-16 из 16] (2017) HDTVRip 720p, HDTVRip 1080p | L2

Сообщение graf_t » 29 июл 2018, 17:25

Информация о фильме
Название: Невеста Бога воды
Оригинальное название: Habaekui Shinboo
Год выхода: 2017
Жанр: фэнтэзи, мелодрама, комедия
Режиссер: Ким Бён Су
В ролях: Ли Кён Ён, Кристал Чон, Пак Кю Сон, Гон Мён, Хан Сон Ён, Пэ Ну Ри

О фильме:
В древности после засухи крестьяне решали, что Бог водной стихии Хабэк прогневался и требует от них человеческой жертвы. Крестьяне выбирали из местных девиц юную красавицу, нарекали её невестой водяного Бога, а потом ритуально бросали в реку. Бог Хабэк — вовсе не чудовище и не демон, а вполне красивый и воспитанный молодой человек. Правда, слегка избалованный.

Страна: Южная Корея
Студия: tvN
Продолжительность: ~ 60 мин. серия
Перевод: Любительский, двухголосый, закадровый (студия "XDUB DORAMA", перевод на русский: ФСГ "Азалии", закадровый текст читали: Koldun02 & Leteriya [с 14 серии Yamatori], тайминг и работа со звуком: Leteriya)

Файл 720p
Кодек: V_MPEG4/ISO/AVC
Качество: HDTVRip 720p
Видео: 1280x720 (16:9), 29.970 FPS, 2802 kb/s
Звук: mp3, 48.0 KHz, 2ch, 192 kb/s
Субтитры: нет

Файл 1080p
Кодек: V_MPEG4/ISO/AVC
Качество: HDTVRip 1080p
Видео: 1920x1080 (16:9), 29.970 FPS, 5059 kb/s
Звук: mp3, 48.0 KHz, 2ch, 192 kb/s
Субтитры: нет

General
Unique ID : 188267498096408151273116805608291745640 (0x8DA3004F8D6CDDC5B4A795CEE004BF68)
Complete name : Bride.of.the.Water.God.E01.720p.HDTVRip.mkv
Format : Matroska
Format version : Version 4 / Version 2
File size : 1.46 GiB
Duration : 1 h 9 min
Overall bit rate : 2 997 kb/s
Encoded date : UTC 2017-07-05 17:34:19
Writing application : mkvmerge v7.8.0 ('River Man') 64bit built on Mar 27 2015 16:31:37
Writing library : libebml v1.3.1 + libmatroska v1.4.2

Video
ID : 1
Format : AVC
Format/Info : Advanced Video Codec
Format profile : High@L3.2
Format settings, CABAC : Yes
Format settings, ReFrames : 3 frames
Format settings, GOP : M=4, N=30
Codec ID : V_MPEG4/ISO/AVC
Duration : 1 h 9 min
Bit rate : 2 802 kb/s
Width : 1 280 pixels
Height : 720 pixels
Display aspect ratio : 16:9
Frame rate mode : Constant
Frame rate : 29.970 (30000/1001) FPS
Color space : YUV
Chroma subsampling : 4:2:0
Bit depth : 8 bits
Scan type : Progressive
Bits/(Pixel*Frame) : 0.101
Stream size : 1.37 GiB (94%)
Default : Yes
Forced : No

Audio
ID : 2
Format : MPEG Audio
Format version : Version 1
Format profile : Layer 3
Mode : Joint stereo
Mode extension : MS Stereo
Codec ID : A_MPEG/L3
Codec ID/Hint : MP3
Duration : 1 h 9 min
Bit rate mode : Constant
Bit rate : 192 kb/s
Channel(s) : 2 channels
Sampling rate : 48.0 kHz
Frame rate : 41.667 FPS (1152 spf)
Compression mode : Lossy
Stream size : 95.8 MiB (6%)
Default : Yes
Forced : No
General
Unique ID : 246015129140504092058051426751722162947 (0xB914CA578CAA623ABE2F334FBA820B03)
Complete name : Bride.of.the.Water.God.E09.1080p.HDTVRip.mkv
Format : Matroska
Format version : Version 4 / Version 2
File size : 2.42 GiB
Duration : 1 h 5 min
Overall bit rate : 5 254 kb/s
Encoded date : UTC 2017-08-11 15:00:27
Writing application : mkvmerge v7.8.0 ('River Man') 64bit built on Mar 27 2015 16:31:37
Writing library : libebml v1.3.1 + libmatroska v1.4.2

Video
ID : 1
Format : AVC
Format/Info : Advanced Video Codec
Format profile : High@L4
Format settings, CABAC : Yes
Format settings, RefFrames : 1 frame
Format settings, GOP : M=1, N=30
Codec ID : V_MPEG4/ISO/AVC
Duration : 1 h 5 min
Bit rate : 5 059 kb/s
Width : 1 920 pixels
Height : 1 080 pixels
Display aspect ratio : 16:9
Frame rate mode : Constant
Frame rate : 29.970 (30000/1001) FPS
Color space : YUV
Chroma subsampling : 4:2:0
Bit depth : 8 bits
Scan type : Progressive
Bits/(Pixel*Frame) : 0.081
Stream size : 2.33 GiB (96%)
Default : Yes
Forced : No

Audio
ID : 2
Format : MPEG Audio
Format version : Version 1
Format profile : Layer 3
Mode : Joint stereo
Mode extension : MS Stereo
Codec ID : A_MPEG/L3
Codec ID/Hint : MP3
Duration : 1 h 5 min
Bit rate mode : Constant
Bit rate : 192 kb/s
Channel(s) : 2 channels
Sampling rate : 48.0 kHz
Frame rate : 41.667 FPS (1152 SPF)
Compression mode : Lossy
Stream size : 90.6 MiB (4%)
Default : Yes
Forced : No


Релиз от:
 
Не забывайте говорить Спасибо. Не уходите с раздачи!   
Торрент: Зарегистрирован [29 июл 2018, 16:57] Скачать торрент
Скачать торрент
[ Размер 134.92 КБ / Просмотров 2 ]
Статус:
Проверен
 
.torrent скачан: 0 раз
Хэш: 338acc2b65885442fbd474d81d6c62d6663decbb
Размер: 26.56 ГБ (28 520 852 854 байт)
Стать Автором раздачи
 
 
Раздал: 100 ГБ
Скачал: 0 байт
Ратио: Seed.
Сообщения: 60279
Зарегистрирован: 31 мар 2015, 18:04


  • Похожие торренты
    Ответы
    Просмотры
    Последнее сообщение

Вернуться в Сериалы

Ресурс не предоставляет электронные версии произведений, а занимается лишь коллекционированием и каталогизацией ссылок, присылаемых и публикуемых на форуме нашими читателями. Если вы являетесь правообладателем какого-либо представленного материала и не желаете чтобы ссылка на него находилась в нашем каталоге, свяжитесь с нами и мы незамедлительно удалим её. Файлы для обмена на трекере предоставлены пользователями сайта, и администрация не несёт ответственности за их содержание. Просьба не заливать файлы, защищенные авторскими правами, а также файлы нелегального содержания!
cron