[iPad] Фото на память (Антон Зенкович) [2018, Россия, Триллер, ужасы, WEB-DLRip, SD (576p)] Original

 
 Статистика раздачи 
Размер: 1.2 ГБ   |  Зарегистрирован: 20 июл 2018, 18:12   |   .torrent скачан: 0 раз
Сидеров: 1  [ 0 байт/сек ]     Личеров: 0  [ 0 байт/сек ]  
  

[iPad] Фото на память (Антон Зенкович) [2018, Россия, Триллер, ужасы, WEB-DLRip, SD (576p)] Original

Сообщение Nakazhu » 20 июл 2018, 21:20

Фото на память

«Приготовьтесь! Сейчас вылетит смерть...»
4.338 / 10 4.10 / 10
Год выпуска: 2018
Страна: Россия
Жанр: Триллер, ужасы
Продолжительность: 01:13:41
Перевод: (Не требуется)
Оригинальная аудиодорожка: Есть
Cубтитры: Нет
Режиссёр: Антон Зенкович
Сценарий: Виктор Бондарюк
Продюсер: Армен Ананикян, Владимир Маслов, Ибрагим Магомедов
Оператор: Антон Зенкович
Композитор: Марк Дорбский
Художник: Александра Фатина
В ролях: Ирина Темичева, Степан Юрпалов, Анастасия Уколова, Санжар Мади, Гарик Петросян, Егор Харламов, Софья Зайка
Бюджет: 23 000 000 руб.
Сборы в России: $589 941
Мировая премьера: 22 июня 2018
Премьера (РФ): 14 июня 2018, «Каропрокат»
Описание: Неожиданная авария заставляет компанию молодых людей свернуть в старый дом, где, к своему удивлению, среди множества жутких фотографий, они находят снимок их разбитого автомобиля. К тому же в одной из комнат обнаруживается старинный фотоаппарат, на который возможно и сделаны страшные снимки. Молодые люди оказываются втянуты в несущую смерть, кровавую карусель… Убивает ли фотоаппарат? Случайны ли происходящие с ними события? Всё это предстоит выяснить оказавшимся в безвыходной ситуации героям.
Качество исходника: WEB-DL 1080p (NNMClub)
Качество: WEB-DLRip
Тип: SD (576p)
Контейнер: M4V
Видео: H.264, 1024x432, 2.40:1, 2 200 Kbps, 23.976 (23976/1000) fps
Аудио: Русский/Оригинальная дорожка , AAC / 2.0 / 128 Kbps / 48.0 KHz


Код:
Код: Выделить всё
Sort Name: Фото на память
XID: Apple:vendor_id:2018-1108400
contentID: 1410872583
Copyright: © 2018 Каропрокат
Screenwriters: Виктор Бондарюк
Producers: Армен Ананикян, Владимир Маслов, Ибрагим Магомедов
Director: Антон Зенкович
Cast: Ирина Темичева, Степан Юрпалов, Анастасия Уколова, Санжар Мади, Гарик Петросян, Егор Харламов, Софья Зайка и др.
Studio: Big Cinema House
Rating: 135
Long Description: Неожиданная авария заставляет компанию молодых людей свернуть в старый дом, где, к своему удивлению, среди множества жутких фотографий, они находят снимок их разбитого автомобиля. К тому же в одной из комнат обнаруживается старинный фотоаппарат, на который возможно и сделаны страшные снимки. Молодые люди оказываются втянуты в несущую смерть, кровавую карусель…
Убивает ли фотоаппарат? Случайны ли происходящие с ними события? Всё это предстоит выяснить оказавшимся в безвыходной ситуации героям.
Description: Неожиданная авария заставляет компанию молодых людей свернуть в старый дом, где, к своему удивлению, среди множества жутких фотографий, они находят снимок их разбитого автомобиля. К тому же в одной из комнат обнаруживается старинный фотоаппарат, на который возможно и сделаны страшные снимки. Молодые люди оказываются втянуты в несущую смерть, кровавую карусель…
Release Date: 2018-06-14T07:00:00Z
Genre: Триллеры
Artist: Антон Зенкович
Name: Фото на память

Код:
Код: Выделить всё
General
Complete name : /Users/imac/HandBrake/Foto.na.pamyat.(SD).(pk).m4v
Format : MPEG-4
Codec ID : M4V
File size : 1.20 GiB
Duration : 1h 13mn
Overall bit rate mode : Variable
Overall bit rate : 2 327 Kbps
Movie name : Фото на память
Performer : Антон Зенкович
Director : Антон Зенкович
Actor : Ирина Темичева / Степан Юрпалов / Анастасия Уколова / Санжар Мади / Гарик Петросян / Егор Харламов / Софья Зайка и др.
Screenplay by : Виктор Бондарюк
Producer : Армен Ананикян / Владимир Маслов / Ибрагим Магомедов
Production studio : Big Cinema House
Genre : Триллеры
ContentType : Short Film
Description : Неожиданная авария заставляет компанию молодых людей свернуть в старый дом, где, к своему удивлению, среди множества жутких фотографий, они находят снимок их разбитого автомобиля. К тому же в одной из комнат обнаруживается старинный фотоаппарат, на который возможно и сделаны страшные снимки. Молодые люди оказываются втянуты в несущую смерть, кровавую карусель…
Recorded date : UTC 2018-06-14 07:00:00
Encoded date : UTC 2018-07-20 17:42:46
Tagged date : UTC 2018-07-20 17:43:39
Copyright : © 2018 Каропрокат
Cover : Yes
Rating : None
Title/Sort : Фото на память
LongDescription : Неожиданная авария заставляет компанию молодых людей свернуть в старый дом, где, к своему удивлению, среди множества жутких фотографий, они находят снимок их разбитого автомобиля. К тому же в одной из комнат обнаруживается старинный фотоаппарат, на который возможно и сделаны страшные снимки. Молодые люди оказываются втянуты в несущую смерть, кровавую карусель… / Убивает ли фотоаппарат? Случайны ли происходящие с ними события? Всё это предстоит выяснить оказавшимся в безвыходной ситуации героям.
AppleStoreCatalogID : 1410872583
Vendor : Apple:vendor_id:2018-1108400
ContentRating : ru-movie|16+|375|
Video #1
ID : 1
Format : AVC
Format/Info : Advanced Video Codec
Format profile : High@L3.1
Format settings, CABAC : Yes
Format settings, ReFrames : 9 frames
Codec ID : avc1
Codec ID/Info : Advanced Video Coding
Duration : 1h 13mn
Source duration : 1h 13mn
Bit rate : 2 200 Kbps
Width : 1 024 pixels
Height : 432 pixels
Display aspect ratio : 2.40:1
Frame rate mode : Variable
Frame rate : 23.976 fps
Minimum frame rate : 23.810 fps
Maximum frame rate : 23.981 fps
Color space : YUV
Chroma subsampling : 4:2:0
Bit depth : 8 bits
Scan type : Progressive
Bits/(Pixel*Frame) : 0.207
Stream size : 1.13 GiB (94%)
Source stream size : 1.13 GiB (94%)
Title : Main Program
Writing library : x264 core 155 r2901 7d0ff22
Encoding settings : cabac=1 / ref=9 / deblock=1:0:0 / analyse=0x3:0x113 / me=umh / subme=9 / psy=1 / psy_rd=1.00:0.00 / mixed_ref=1 / me_range=32 / chroma_me=1 / trellis=1 / 8x8dct=1 / cqm=0 / deadzone=21,11 / fast_pskip=1 / chroma_qp_offset=-2 / threads=13 / lookahead_threads=1 / sliced_threads=0 / nr=0 / decimate=1 / interlaced=0 / bluray_compat=0 / constrained_intra=0 / bframes=6 / b_pyramid=2 / b_adapt=2 / b_bias=0 / direct=1 / weightb=1 / open_gop=0 / weightp=2 / keyint=240 / keyint_min=24 / scenecut=40 / intra_refresh=0 / rc_lookahead=40 / rc=2pass / mbtree=1 / bitrate=2200 / ratetol=1.0 / qcomp=0.60 / qpmin=0 / qpmax=69 / qpstep=4 / cplxblur=20.0 / qblur=0.5 / ip_ratio=1.40 / aq=1:1.00
Language : Russian
Encoded date : UTC 2018-07-20 17:42:46
Tagged date : UTC 2018-07-20 17:42:49
Color range : Limited
Color primaries : BT.709
Transfer characteristics : BT.709
Matrix coefficients : BT.709
Video #2
ID : 4
Format : JPEG
Codec ID : jpeg
Duration : 1h 13mn
Bit rate mode : Variable
Bit rate : 616 bps
Width : 640 pixels
Height : 270 pixels
Display aspect ratio : 2.40:1
Frame rate mode : Variable
Frame rate : 0.003 fps
Minimum frame rate : 0.001 fps
Maximum frame rate : 0.004 fps
Color space : YUV
Chroma subsampling : 4:2:0
Bit depth : 8 bits
Compression mode : Lossy
Bits/(Pixel*Frame) : 1.188
Stream size : 301 KiB (0%)
Title : Chapter Images
Language : Russian
Encoded date : UTC 2018-07-20 17:42:54
Tagged date : UTC 2018-07-20 17:42:54
Audio
ID : 2
Format : AAC
Format/Info : Advanced Audio Codec
Format profile : LC
Codec ID : 40
Duration : 1h 13mn
Source duration : 1h 13mn
Bit rate mode : Variable
Bit rate : 123 Kbps
Maximum bit rate : 140 Kbps
Channel(s) : 2 channels
Channel positions : Front: L R
Sampling rate : 48.0 KHz
Compression mode : Lossy
Stream size : 64.8 MiB (5%)
Source stream size : 64.8 MiB (5%)
Title : Russian Stereo
Language : Russian
Encoded date : UTC 2018-07-20 17:42:46
Tagged date : UTC 2018-07-20 17:42:51
Menu #1
00:00:00.000 : 1
00:06:41.666 : 2
00:12:22.499 : 3
00:17:54.832 : 4
00:23:53.248 : 5
00:30:54.873 : 6
00:35:29.748 : 7
00:40:30.123 : 8
00:45:46.581 : 9
00:50:56.247 : 10
00:56:29.913 : 11
01:01:13.163 : 12
Menu #2
ID : 3
Codec ID : text
Duration : 1h 13mn
Language : Russian
Encoded date : UTC 2018-07-20 17:42:51
Tagged date : UTC 2018-07-20 17:42:51
00:00:00.000 : 1
00:06:41.666 : 2
00:12:22.499 : 3
00:17:54.832 : 4
00:23:53.248 : 5
00:30:54.873 : 6
00:35:29.748 : 7
00:40:30.123 : 8
00:45:46.581 : 9
00:50:56.247 : 10
00:56:29.913 : 11
01:01:13.163 : 12
Bit rate mode : VBR

Код:
Код: Выделить всё
x264 [info]: frame I:916   Avg QP:11.98  size: 70566
x264 [info]: frame P:27167 Avg QP:14.89  size: 23352
x264 [info]: frame B:77913 Avg QP:17.15  size:  6620
x264 [info]: consecutive B-frames:  2.7%  4.0%  6.8% 58.3% 10.7% 15.0%  2.6%
x264 [info]: mb I  I16..4:  9.7% 69.9% 20.4%
x264 [info]: mb P  I16..4:  1.7%  9.2%  2.1%  P16..4: 31.1% 30.2% 17.9%  0.0%  0.0%    skip: 7.8%
x264 [info]: mb B  I16..4:  0.1%  0.9%  0.2%  B16..8: 35.3% 13.1%  3.8%  direct: 5.7%  skip:40.9%  L0:41.2% L1:44.1% BI:14.7%
x264 [info]: 8x8 transform intra:70.3% inter:62.2%
x264 [info]: coded y,uvDC,uvAC intra: 84.4% 85.5% 68.9% inter: 29.4% 21.6% 4.1%
x264 [info]: i16 v,h,dc,p: 48%  9%  6% 37%
x264 [info]: i8 v,h,dc,ddl,ddr,vr,hd,vl,hu: 12%  9%  7%  9% 13% 14% 12% 12% 13%
x264 [info]: i4 v,h,dc,ddl,ddr,vr,hd,vl,hu: 10%  7%  4%  9% 15% 15% 14% 12% 13%
x264 [info]: i8c dc,h,v,p: 46% 21% 18% 15%
x264 [info]: Weighted P-Frames: Y:4.4% UV:2.4%
x264 [info]: ref P L0: 53.7% 10.2% 16.3%  5.8%  4.6%  3.2%  2.8%  1.6%  1.6%  0.2%  0.0%
x264 [info]: ref B L0: 78.6% 10.1%  4.6%  2.5%  1.6%  1.4%  0.9%  0.3%
x264 [info]: ref B L1: 96.3%  3.7%
x264 [info]: kb/s:2198.33




Релиз подготовлен для просмотра на Apple TV, iPad, iPhone, iPod Touch.
Для просмотра данного релиза на компьютере с ОС Windows рекомендуется использовать VLC media player
 
Не забывайте говорить Спасибо. Не уходите с раздачи!   
Торрент: Зарегистрирован [20 июл 2018, 18:12] Скачать торрент
Скачать торрент
[ Размер 24.44 КБ / Просмотров 2 ]
Статус:
Проверен
 
.torrent скачан: 0 раз
Хэш: d73ddb932e3b29af60bc12440aa67a8f733c7967
Размер: 1.2 ГБ (1 286 145 000 байт)
Стать Автором раздачи
 
 
Раздал: 0 байт
Скачал: 0 байт
Ратио: Inf.
Сообщения: 487468
Зарегистрирован: 17 апр 2014, 13:57


  • Похожие торренты
    Ответы
    Просмотры
    Последнее сообщение

Вернуться в Фильмы для iPod, iPhone, iPad

Ресурс не предоставляет электронные версии произведений, а занимается лишь коллекционированием и каталогизацией ссылок, присылаемых и публикуемых на форуме нашими читателями. Если вы являетесь правообладателем какого-либо представленного материала и не желаете чтобы ссылка на него находилась в нашем каталоге, свяжитесь с нами и мы незамедлительно удалим её. Файлы для обмена на трекере предоставлены пользователями сайта, и администрация не несёт ответственности за их содержание. Просьба не заливать файлы, защищенные авторскими правами, а также файлы нелегального содержания!
cron