[DSD][OF] Orchestre de la Suisse Romande, Kazuki Yamada - Russian Dances (Чайковский, Глазунов, Шостакович, Стравинский) - 2016 (Classical)

 
 Статистика раздачи 
Размер: 2.8 ГБ   |  Зарегистрирован: 20 июл 2018, 18:03   |   .torrent скачан: 0 раз
Сидеров: 1  [ 0 байт/сек ]     Личеров: 0  [ 0 байт/сек ]  
  

[DSD][OF] Orchestre de la Suisse Romande, Kazuki Yamada - Russian Dances (Чайковский, Глазунов, Шостакович, Стравинский) - 2016 (Classical)

Сообщение Nakazhu » 20 июл 2018, 21:19

Orchestre de la Suisse Romande, Kazuki Yamada / RUSSIAN DANCES
Формат записи/Источник записи: [DSD][OF]
Наличие водяных знаков: Нет
Год издания/переиздания диска: 2016
Жанр: Classical
Издатель (лейбл): PentaTone
Продолжительность: 01:10:55
Наличие сканов в содержимом раздачи: Буклет PDF
Контейнер: DSF (*.dsf)
Тип рипа: tracks
Разрядность: 64(2,8 MHz/1 Bit)
Формат: DSD
Количество каналов: 2.0
Источник (релизер): pentatone.nativedsd.com
Треклист:
Peter Ilyich Tchaikovsky (1840-1893)
Swan Lake Suite, Op. 20a, TH 219
01. I. Scene - Moderato
02. II. Waltz
03. III. Dance of the Swans - Allegro moderato
04. IV. Scene - Andante
05. V. Hungarian Dance (Czardas) - Moderato assai
06. VI. Spanish Dance - Allegro non troppo
07. VII. Neapolitan Dance - Allegro moderato
08. VIII. Mazurka
Alexander Glazunov (1865-1936)
09. Concert Waltz No. 1 in D Major, Op. 47
10. Concert Waltz No. 2 in F Major, Op. 51
Dmitri Shostakovich (1906-1975)
The Golden Age Suite, Op. 22a
11. I. Introduction - Allegro non troppo
12. II. Adagio
13. III. Polka - Allegretto
14. IV. Dance - Allegro
Igor Stravinsky (1882-1971)
15. Circus Polka
Orchestre de la Suisse Romande
Conducted by Kazuki Yamada
Код: Выделить всё
foobar2000 1.3.17 / Замер динамического диапазона (DR) 1.1.1
Дата отчёта:  2018-07-20 21:28:14
--------------------------------------------------------------------------------
Анализ:   Orchestre de la Suisse Romande, Kazuki Yamada / Tchaikovsky Suite from Swan Lake, Glazunov 2 Concert Waltzes, Shostakovich The Golden Age, Stravinsky Circus Polka
--------------------------------------------------------------------------------
DR         Пики         RMS           Продолжительность трека
--------------------------------------------------------------------------------
DR13      -6.75 дБ   -25.27 дБ      2:58 01-Swan Lake Suite, Op. 20a, TH 219: I. Scene: Moderato
DR13      -5.96 дБ   -24.84 дБ      7:22 02-Swan Lake Suite, Op. 20a, TH 219: II. Waltz
DR15      -8.88 дБ   -32.04 дБ      1:36 03-Swan Lake Suite, Op. 20a, TH 219: III. Dance of the Swans: Allegro moderato
DR14     -15.45 дБ   -33.02 дБ      7:15 04-Swan Lake Suite, Op. 20a, TH 219: IV. Scene: Andante
DR13      -6.29 дБ   -25.61 дБ      3:04 05-Swan Lake Suite, Op. 20a, TH 219: V. Hungarian Dance (Czardas): Moderato assai - Allegro moderato
DR14      -8.61 дБ   -27.64 дБ      2:28 06-Swan Lake Suite, Op. 20a, TH 219: VI. Spanish Dance: Allegro non troppo
DR13      -6.48 дБ   -25.19 дБ      2:14 07-Swan Lake Suite, Op. 20a, TH 219: VII. Neapolitan Dance: Allegro moderato – Andantino quasi moderato – Presto
DR13      -5.19 дБ   -23.12 дБ      4:28 08-Swan Lake Suite, Op. 20a, TH 219: VIII. Mazurka
DR16      -5.74 дБ   -27.16 дБ      9:19 09-Concert Waltz No. 1 in D Major, Op. 47
DR14      -9.01 дБ   -27.69 дБ      8:54 10-Concert Waltz No. 2 in F Major, Op. 51
DR14      -5.39 дБ   -26.29 дБ      4:05 11-The Golden Age Suite, Op. 22a: I. Introduction: Allegro non troppo
DR16      -4.33 дБ   -27.32 дБ      8:42 12-The Golden Age Suite, Op. 22a: II. Adagio
DR15      -7.40 дБ   -30.58 дБ      2:19 13-The Golden Age Suite, Op. 22a: III. Polka: Allegretto
DR13      -4.32 дБ   -23.96 дБ      2:22 14-The Golden Age Suite, Op. 22a: IV. Dance: Allegro
DR15      -3.44 дБ   -25.49 дБ      3:50 15-Circus Polka
--------------------------------------------------------------------------------
Количество треков: 15
Реальные значения DR: DR14
Частота:  2822400 Гц / Частота PCM:176400 Гц
Каналов:  2
Разрядность:   1
Битрейт:  5645 кбит/с
Кодек:   DSD64
================================================================================
In an ideal situation, football players perform their “dance” on a grass pitch — as once did the “white ballet” of Real Madrid, led by its soloists Pusks and Di Stfano. But surely not on the ballet stage! Definitely not. However, not only was Dmitri Shostakovich (1906 — 1975) passionate about music, he was also a great football fan. More specifically, a fan of his hometown club Zenit St. Petersburg. The Russian language has a more intense description for the concept of the “fan” — one is considered “bolejet” (literally = ill) for one’s team: one shares the fever. And as a fan of Zenit, Shostakovich had his fair share of downright hard times: “Being a supporter is at times more frustrating than pleasurable.” He was often a guest at the stadium: even when Leningrad was under siege from the German army, he attended lower-league matches whenever possible. In 1929, Shostakovich composed his first, three-act ballet to a scenic design by film director Alexander Ivanovsky. Entitled The Golden Age, it portrays an away-game of a Soviet football team in an unnamed western city at the time of an industrial exhibition. During the away-game of the Soviet team, plenty of bizarre events take place in the ideologically “false” world, which allow for the inclusion of numerous dance interludes and parodies.
 
Не забывайте говорить Спасибо. Не уходите с раздачи!   
Торрент: Зарегистрирован [20 июл 2018, 18:03] Скачать торрент
Скачать торрент
[ Размер 16 КБ / Просмотров 23 ]
Статус:
Проверен
 
.torrent скачан: 0 раз
Хэш: 826320b9fd31dd52044b647d47d448cb8432bb6c
Размер: 2.8 ГБ (3 009 717 138 байт)
Стать Автором раздачи
 
 
Раздал: 0 байт
Скачал: 0 байт
Ратио: Inf.
Сообщения: 487468
Зарегистрирован: 17 апр 2014, 13:57


  • Похожие торренты
    Ответы
    Просмотры
    Последнее сообщение

Вернуться в Классика и классика в современной обработке (Hi-Res stereo)

Ресурс не предоставляет электронные версии произведений, а занимается лишь коллекционированием и каталогизацией ссылок, присылаемых и публикуемых на форуме нашими читателями. Если вы являетесь правообладателем какого-либо представленного материала и не желаете чтобы ссылка на него находилась в нашем каталоге, свяжитесь с нами и мы незамедлительно удалим её. Файлы для обмена на трекере предоставлены пользователями сайта, и администрация не несёт ответственности за их содержание. Просьба не заливать файлы, защищенные авторскими правами, а также файлы нелегального содержания!
cron