(Grunge) [CD] Temple of the Dog - Temple of the Dog - 1991, FLAC (tracks+.cue), lossless

 
 Статистика раздачи 
Размер: 362.69 МБ   |  Зарегистрирован: 20 июл 2018, 14:23   |   .torrent скачан: 0 раз
Сидеров: 1  [ 0 байт/сек ]     Личеров: 0  [ 0 байт/сек ]  
  

(Grunge) [CD] Temple of the Dog - Temple of the Dog - 1991, FLAC (tracks+.cue), lossless

Сообщение Nakazhu » 20 июл 2018, 17:28

Temple of the Dog / Temple of the Dog
Жанр: Grunge
Носитель: CD
Страна-производитель диска (релиза): ?
Год издания: 1991
Издатель (лейбл): A&M
Номер по каталогу: 75021 5350 2
Страна исполнителя (группы): United States
Аудиокодек: FLAC (*.flac)
Тип рипа: tracks+.cue
Битрейт аудио: lossless
Продолжительность: 00:54:59
Источник (релизер): Demonoid (Kitlope)
Наличие сканов в содержимом раздачи: нет
Треклист:
01 Say Hello 2 Heaven 6:22
02 Reach Down 11:11
03 Hunger Strike 4:03
04 Pushin Forward Back 3:44
05 Call Me a Dog 5:02
06 Times of Trouble 5:41
07 Wooden Jesus 4:09
08 Your Saviour 4:02
09 Four Walled World 6:53
10 All Night Thing 3:52
Код: Выделить всё
Exact Audio Copy V0.99 prebeta 5 from 4. May 2009
EAC extraction logfile from 26. January 2010, 9:44
Temple Of The Dog / Temple Of The Dog
Used drive  : PLEXTOR DVDR   PX-716A   Adapter: 4  ID: 0
Read mode               : Secure
Utilize accurate stream : Yes
Defeat audio cache      : Yes
Make use of C2 pointers : No
Read offset correction                      : 30
Overread into Lead-In and Lead-Out          : No
Fill up missing offset samples with silence : Yes
Delete leading and trailing silent blocks   : No
Null samples used in CRC calculations       : Yes
Used interface                              : Native Win32 interface for Win NT & 2000
Gap handling                                : Appended to previous track
Used output format              : User Defined Encoder
Selected bitrate                : 1024 kBit/s
Quality                         : High
Add ID3 tag                     : Yes
Command line compressor         : C:\Program Files (x86)\Exact Audio Copy\FLAC\FLAC.EXE
Additional command line options : -6 -V -T "ARTIST=%a" -T "TITLE=%t" -T "ALBUM=%g" -T "DATE=%y" -T "TRACKNUMBER=%n" -T "GENRE=%m" -T "COMMENT=%e" %s -o %d
TOC of the extracted CD
     Track |   Start  |  Length  | Start sector | End sector
    ---------------------------------------------------------
        1  |  0:00.32 |  6:24.35 |        32    |    28866
        2  |  6:24.67 | 11:12.55 |     28867    |    79321
        3  | 17:37.47 |  4:06.20 |     79322    |    97791
        4  | 21:43.67 |  3:45.25 |     97792    |   114691
        5  | 25:29.17 |  5:04.38 |    114692    |   137529
        6  | 30:33.55 |  5:42.45 |    137530    |   163224
        7  | 36:16.25 |  4:10.40 |    163225    |   182014
        8  | 40:26.65 |  4:04.22 |    182015    |   200336
        9  | 44:31.12 |  6:54.33 |    200337    |   231419
       10  | 51:25.45 |  3:51.57 |    231420    |   248801
Track  1
     Filename C:\Users\Admin\Documents\EAC Rips\01. Temple Of The Dog - Say Hello 2 Heaven.wav
     Pre-gap length  0:00:02.32
     Peak level 97.7 %
     Track quality 100.0 %
     Test CRC A22746B7
     Copy CRC A22746B7
     Accurately ripped (confidence 17)  [2FACDBA8]
     Copy OK
Track  2
     Filename C:\Users\Admin\Documents\EAC Rips\02. Temple Of The Dog - Reach Down.wav
     Pre-gap length  0:00:02.22
     Peak level 97.7 %
     Track quality 99.9 %
     Test CRC 70681212
     Copy CRC 70681212
     Accurately ripped (confidence 18)  [00258A07]
     Copy OK
Track  3
     Filename C:\Users\Admin\Documents\EAC Rips\03. Temple Of The Dog - Hunger Strike.wav
     Pre-gap length  0:00:01.12
     Peak level 97.7 %
     Track quality 100.0 %
     Test CRC 883A2E4C
     Copy CRC 883A2E4C
     Accurately ripped (confidence 19)  [AA2E65F6]
     Copy OK
Track  4
     Filename C:\Users\Admin\Documents\EAC Rips\04. Temple Of The Dog - Pushin Forward Back.wav
     Pre-gap length  0:00:03.45
     Peak level 97.7 %
     Track quality 100.0 %
     Test CRC 1F9AA301
     Copy CRC 1F9AA301
     Accurately ripped (confidence 18)  [152953B9]
     Copy OK
Track  5
     Filename C:\Users\Admin\Documents\EAC Rips\05. Temple Of The Dog - Call Me A Dog.wav
     Pre-gap length  0:00:01.22
     Peak level 97.7 %
     Track quality 99.9 %
     Test CRC C38F9D59
     Copy CRC C38F9D59
     Accurately ripped (confidence 16)  [E60FB797]
     Copy OK
Track  6
     Filename C:\Users\Admin\Documents\EAC Rips\06. Temple Of The Dog - Times Of Trouble.wav
     Pre-gap length  0:00:02.15
     Peak level 95.6 %
     Track quality 100.0 %
     Test CRC E43351EF
     Copy CRC E43351EF
     Accurately ripped (confidence 17)  [FFD61846]
     Copy OK
Track  7
     Filename C:\Users\Admin\Documents\EAC Rips\07. Temple Of The Dog - Wooden Jesus.wav
     Pre-gap length  0:00:01.23
     Peak level 97.7 %
     Track quality 100.0 %
     Test CRC 91828070
     Copy CRC 91828070
     Accurately ripped (confidence 16)  [9CF2E0BB]
     Copy OK
Track  8
     Filename C:\Users\Admin\Documents\EAC Rips\08. Temple Of The Dog - Your Saviour.wav
     Pre-gap length  0:00:01.30
     Peak level 97.7 %
     Track quality 100.0 %
     Test CRC DA7B32C2
     Copy CRC DA7B32C2
     Accurately ripped (confidence 17)  [BAEE3E75]
     Copy OK
Track  9
     Filename C:\Users\Admin\Documents\EAC Rips\09. Temple Of The Dog - Four Walled World.wav
     Pre-gap length  0:00:02.02
     Peak level 97.7 %
     Track quality 100.0 %
     Test CRC 6C6EADD3
     Copy CRC 6C6EADD3
     Accurately ripped (confidence 15)  [35D3FDDD]
     Copy OK
Track 10
     Filename C:\Users\Admin\Documents\EAC Rips\10. Temple Of The Dog - All Night Thing.wav
     Pre-gap length  0:00:01.53
     Peak level 97.7 %
     Track quality 99.9 %
     Test CRC AFB9D25C
     Copy CRC AFB9D25C
     Accurately ripped (confidence 16)  [AC5E699A]
     Copy OK
All tracks accurately ripped
No errors occurred
End of status report
Код: Выделить всё
REM GENRE Grunge
REM DATE 1991
REM DISCID 8C0CF50A
REM COMMENT "ExactAudioCopy v0.99pb5"
CATALOG 0000000000000
PERFORMER "Temple Of The Dog"
TITLE "Temple Of The Dog"
FILE "01. Temple Of The Dog - Say Hello 2 Heaven.wav" WAVE
  TRACK 01 AUDIO
    TITLE "Say Hello 2 Heaven"
    PERFORMER "Temple Of The Dog"
    PREGAP 00:00:32
    INDEX 01 00:00:00
  TRACK 02 AUDIO
    TITLE "Reach Down"
    PERFORMER "Temple Of The Dog"
    INDEX 00 06:22:13
FILE "02. Temple Of The Dog - Reach Down.wav" WAVE
    INDEX 01 00:00:00
  TRACK 03 AUDIO
    TITLE "Hunger Strike"
    PERFORMER "Temple Of The Dog"
    INDEX 00 11:11:43
FILE "03. Temple Of The Dog - Hunger Strike.wav" WAVE
    INDEX 01 00:00:00
  TRACK 04 AUDIO
    TITLE "Pushin Forward Back"
    PERFORMER "Temple Of The Dog"
    INDEX 00 04:02:50
FILE "04. Temple Of The Dog - Pushin Forward Back.wav" WAVE
    INDEX 01 00:00:00
  TRACK 05 AUDIO
    TITLE "Call Me A Dog"
    PERFORMER "Temple Of The Dog"
    INDEX 00 03:44:03
FILE "05. Temple Of The Dog - Call Me A Dog.wav" WAVE
    INDEX 01 00:00:00
  TRACK 06 AUDIO
    TITLE "Times Of Trouble"
    PERFORMER "Temple Of The Dog"
    INDEX 00 05:02:23
FILE "06. Temple Of The Dog - Times Of Trouble.wav" WAVE
    INDEX 01 00:00:00
  TRACK 07 AUDIO
    TITLE "Wooden Jesus"
    PERFORMER "Temple Of The Dog"
    INDEX 00 05:41:22
FILE "07. Temple Of The Dog - Wooden Jesus.wav" WAVE
    INDEX 01 00:00:00
  TRACK 08 AUDIO
    TITLE "Your Saviour"
    PERFORMER "Temple Of The Dog"
    INDEX 00 04:09:10
FILE "08. Temple Of The Dog - Your Saviour.wav" WAVE
    INDEX 01 00:00:00
  TRACK 09 AUDIO
    TITLE "Four Walled World"
    PERFORMER "Temple Of The Dog"
    INDEX 00 04:02:20
FILE "09. Temple Of The Dog - Four Walled World.wav" WAVE
    INDEX 01 00:00:00
  TRACK 10 AUDIO
    TITLE "All Night Thing"
    PERFORMER "Temple Of The Dog"
    INDEX 00 06:52:55
FILE "10. Temple Of The Dog - All Night Thing.wav" WAVE
    INDEX 01 00:00:00
 
Не забывайте говорить Спасибо. Не уходите с раздачи!   
Торрент: Зарегистрирован [20 июл 2018, 14:23] Скачать торрент
Скачать торрент
[ Размер 15.65 КБ / Просмотров 18 ]
Статус:
Проверен
 
.torrent скачан: 0 раз
Хэш: 6420cfc3ed10862f9cbd18d412672c1a4a206c92
Размер: 362.69 МБ (380 306 900 байт)
Стать Автором раздачи
 
 
Раздал: 0 байт
Скачал: 0 байт
Ратио: Inf.
Сообщения: 487468
Зарегистрирован: 17 апр 2014, 13:57


  • Похожие торренты
    Ответы
    Просмотры
    Последнее сообщение

Вернуться в Alternative & Nu-metal (lossless)

Ресурс не предоставляет электронные версии произведений, а занимается лишь коллекционированием и каталогизацией ссылок, присылаемых и публикуемых на форуме нашими читателями. Если вы являетесь правообладателем какого-либо представленного материала и не желаете чтобы ссылка на него находилась в нашем каталоге, свяжитесь с нами и мы незамедлительно удалим её. Файлы для обмена на трекере предоставлены пользователями сайта, и администрация не несёт ответственности за их содержание. Просьба не заливать файлы, защищенные авторскими правами, а также файлы нелегального содержания!
cron