(Garage Rock, Post Punk, Noise Rock) [CD] The Hunches - Exit Dreams - 2008, FLAC (tracks+.cue), lossless

 
 Статистика раздачи 
Размер: 273.54 МБ   |  Зарегистрирован: 20 июл 2018, 10:30   |   .torrent скачан: 0 раз
Сидеров: 1  [ 0 байт/сек ]     Личеров: 0  [ 0 байт/сек ]  
  

(Garage Rock, Post Punk, Noise Rock) [CD] The Hunches - Exit Dreams - 2008, FLAC (tracks+.cue), lossless

Сообщение Nakazhu » 20 июл 2018, 13:38

The Hunches / Exit Dreams
Жанр: Garage Rock, Post Punk, Noise Rock
Носитель: CD
Страна-производитель диска (релиза): US
Год издания: 2008
Издатель (лейбл): In The Red Recordings
Номер по каталогу: ITR 163
Страна исполнителя (группы): Portland, OR, US
Аудиокодек: FLAC (*.flac)
Тип рипа: tracks+.cue
Битрейт аудио: lossless
Продолжительность: 00:40:32
Источник (релизер): Red, gorehound
Наличие сканов в содержимом раздачи: нет
Треклист:
01. Actors
02. Ate My Teeth
03. Not Invited
04. Deaf Ambitions
05. From This Window
06. Carnival Debris
07. Street Sweeper
08. Your Sick Blooms
09. Pinwheel Spins
10. Fall Drive
11. Unraveling
12. Swim Hole
Код: Выделить всё
X Lossless Decoder version 20110703 (135.1)
XLD extraction logfile from 2011-08-12 07:02:13 +0000
The Hunches / Exit Dreams
Used drive : MATSHITA DVD-R   UJ-868 (revision KB19)
Ripper mode             : CDParanoia III 10.2
Disable audio cache     : OK for the drive with a cache less than 2750KiB
Make use of C2 pointers : NO
Read offset correction  : 102
Max retry count         : 100
Gap status              : Analyzed, Appended
TOC of the extracted CD
     Track |   Start  |  Length  | Start sector | End sector
    ---------------------------------------------------------
        1  | 00:00:00 | 03:02:54 |         0    |    13703
        2  | 03:02:54 | 02:46:08 |     13704    |    26161
        3  | 05:48:62 | 03:35:58 |     26162    |    42344
        4  | 09:24:45 | 03:04:22 |     42345    |    56166
        5  | 12:28:67 | 04:32:00 |     56167    |    76566
        6  | 17:00:67 | 02:17:22 |     76567    |    86863
        7  | 19:18:14 | 04:07:70 |     86864    |   105458
        8  | 23:26:09 | 02:23:42 |    105459    |   116225
        9  | 25:49:51 | 02:50:69 |    116226    |   129044
       10  | 28:40:45 | 02:41:41 |    129045    |   141160
       11  | 31:22:11 | 05:19:44 |    141161    |   165129
       12  | 36:41:55 | 03:50:34 |    165130    |   182413
AccurateRip Summary
    Track 01 : OK (confidence 2)
    Track 02 : OK (confidence 2)
    Track 03 : OK (confidence 2)
    Track 04 : OK (confidence 2)
    Track 05 : OK (confidence 2)
    Track 06 : OK (confidence 2)
    Track 07 : OK (confidence 2)
    Track 08 : OK (confidence 2)
    Track 09 : OK (confidence 2)
    Track 10 : OK (confidence 2)
    Track 11 : OK (confidence 2)
    Track 12 : OK (confidence 2)
        ->All tracks accurately ripped.
All Tracks
    Album gain             : -12.22 dB
    Peak                   : 0.987762
    Statistics
        Read error                           : 0
        Skipped (treated as error)           : 0
        Edge jitter error (maybe fixed)      : 0
        Atom jitter error (maybe fixed)      : 0
        Drift error (maybe fixed)            : 0
        Dropped bytes error (maybe fixed)    : 0
        Duplicated bytes error (maybe fixed) : 0
Track 01
    Filename : /Users/JGunner/Music/iTunes/iTunes Music/The Hunches/The Hunches - Exit Dreams (2009) [FLAC]/01 Actors.flac
    Pre-gap length : 00:02:00
    Track gain             : -10.10 dB
    Peak                   : 0.987762
    CRC32 hash (test run)  : 013462FF
    CRC32 hash             : 013462FF
    CRC32 hash (skip zero) : 398B87AA
    AccurateRip signature  : 277BB0B5
        ->Accurately ripped! (confidence 2)
    Statistics
        Read error                           : 0
        Skipped (treated as error)           : 0
        Edge jitter error (maybe fixed)      : 0
        Atom jitter error (maybe fixed)      : 0
        Drift error (maybe fixed)            : 0
        Dropped bytes error (maybe fixed)    : 0
        Duplicated bytes error (maybe fixed) : 0
        Inconsistency in error sectors       : 0
Track 02
    Filename : /Users/JGunner/Music/iTunes/iTunes Music/The Hunches/The Hunches - Exit Dreams (2009) [FLAC]/02 Ate My Teeth.flac
    Track gain             : -12.56 dB
    Peak                   : 0.986542
    CRC32 hash (test run)  : 2894763E
    CRC32 hash             : 2894763E
    CRC32 hash (skip zero) : C2B10D43
    AccurateRip signature  : 43574775
        ->Accurately ripped! (confidence 2)
    Statistics
        Read error                           : 0
        Skipped (treated as error)           : 0
        Edge jitter error (maybe fixed)      : 0
        Atom jitter error (maybe fixed)      : 0
        Drift error (maybe fixed)            : 0
        Dropped bytes error (maybe fixed)    : 0
        Duplicated bytes error (maybe fixed) : 0
        Inconsistency in error sectors       : 0
Track 03
    Filename : /Users/JGunner/Music/iTunes/iTunes Music/The Hunches/The Hunches - Exit Dreams (2009) [FLAC]/03 Not Invited.flac
    Track gain             : -8.78 dB
    Peak                   : 0.987732
    CRC32 hash (test run)  : 9EEDEE91
    CRC32 hash             : 9EEDEE91
    CRC32 hash (skip zero) : A593F4D6
    AccurateRip signature  : D4B24E55
        ->Accurately ripped! (confidence 2)
    Statistics
        Read error                           : 0
        Skipped (treated as error)           : 0
        Edge jitter error (maybe fixed)      : 0
        Atom jitter error (maybe fixed)      : 0
        Drift error (maybe fixed)            : 0
        Dropped bytes error (maybe fixed)    : 0
        Duplicated bytes error (maybe fixed) : 0
        Inconsistency in error sectors       : 0
Track 04
    Filename : /Users/JGunner/Music/iTunes/iTunes Music/The Hunches/The Hunches - Exit Dreams (2009) [FLAC]/04 Deaf Ambitions.flac
    Track gain             : -11.06 dB
    Peak                   : 0.987732
    CRC32 hash (test run)  : 230139B8
    CRC32 hash             : 230139B8
    CRC32 hash (skip zero) : FE248AD2
    AccurateRip signature  : D9B893C8
        ->Accurately ripped! (confidence 2)
    Statistics
        Read error                           : 0
        Skipped (treated as error)           : 0
        Edge jitter error (maybe fixed)      : 0
        Atom jitter error (maybe fixed)      : 0
        Drift error (maybe fixed)            : 0
        Dropped bytes error (maybe fixed)    : 0
        Duplicated bytes error (maybe fixed) : 0
        Inconsistency in error sectors       : 0
Track 05
    Filename : /Users/JGunner/Music/iTunes/iTunes Music/The Hunches/The Hunches - Exit Dreams (2009) [FLAC]/05 From This Window.flac
    Track gain             : -8.81 dB
    Peak                   : 0.987640
    CRC32 hash (test run)  : 4C8289D3
    CRC32 hash             : 4C8289D3
    CRC32 hash (skip zero) : 44FD2A50
    AccurateRip signature  : E7C31157
        ->Accurately ripped! (confidence 2)
    Statistics
        Read error                           : 0
        Skipped (treated as error)           : 0
        Edge jitter error (maybe fixed)      : 0
        Atom jitter error (maybe fixed)      : 0
        Drift error (maybe fixed)            : 0
        Dropped bytes error (maybe fixed)    : 0
        Duplicated bytes error (maybe fixed) : 0
        Inconsistency in error sectors       : 0
Track 06
    Filename : /Users/JGunner/Music/iTunes/iTunes Music/The Hunches/The Hunches - Exit Dreams (2009) [FLAC]/06 Carnival Debris.flac
    Track gain             : -11.15 dB
    Peak                   : 0.987701
    CRC32 hash (test run)  : 175D257F
    CRC32 hash             : 175D257F
    CRC32 hash (skip zero) : 53E8D91D
    AccurateRip signature  : 6F398FE5
        ->Accurately ripped! (confidence 2)
    Statistics
        Read error                           : 0
        Skipped (treated as error)           : 0
        Edge jitter error (maybe fixed)      : 0
        Atom jitter error (maybe fixed)      : 0
        Drift error (maybe fixed)            : 0
        Dropped bytes error (maybe fixed)    : 0
        Duplicated bytes error (maybe fixed) : 0
        Inconsistency in error sectors       : 0
Track 07
    Filename : /Users/JGunner/Music/iTunes/iTunes Music/The Hunches/The Hunches - Exit Dreams (2009) [FLAC]/07 Street Sweeper.flac
    Track gain             : -11.61 dB
    Peak                   : 0.987701
    CRC32 hash (test run)  : 5A63AD95
    CRC32 hash             : 5A63AD95
    CRC32 hash (skip zero) : EEC40E07
    AccurateRip signature  : 887D3324
        ->Accurately ripped! (confidence 2)
    Statistics
        Read error                           : 0
        Skipped (treated as error)           : 0
        Edge jitter error (maybe fixed)      : 0
        Atom jitter error (maybe fixed)      : 0
        Drift error (maybe fixed)            : 0
        Dropped bytes error (maybe fixed)    : 0
        Duplicated bytes error (maybe fixed) : 0
        Inconsistency in error sectors       : 0
Track 08
    Filename : /Users/JGunner/Music/iTunes/iTunes Music/The Hunches/The Hunches - Exit Dreams (2009) [FLAC]/08 Your Sick Blooms.flac
    Track gain             : -11.09 dB
    Peak                   : 0.987701
    CRC32 hash (test run)  : FEB79E18
    CRC32 hash             : FEB79E18
    CRC32 hash (skip zero) : 547C260B
    AccurateRip signature  : 084431B5
        ->Accurately ripped! (confidence 2)
    Statistics
        Read error                           : 0
        Skipped (treated as error)           : 0
        Edge jitter error (maybe fixed)      : 0
        Atom jitter error (maybe fixed)      : 0
        Drift error (maybe fixed)            : 0
        Dropped bytes error (maybe fixed)    : 0
        Duplicated bytes error (maybe fixed) : 0
        Inconsistency in error sectors       : 0
Track 09
    Filename : /Users/JGunner/Music/iTunes/iTunes Music/The Hunches/The Hunches - Exit Dreams (2009) [FLAC]/09 Pinwheel Spins.flac
    Track gain             : -13.45 dB
    Peak                   : 0.987762
    CRC32 hash (test run)  : C774ACE7
    CRC32 hash             : C774ACE7
    CRC32 hash (skip zero) : C7D16A2F
    AccurateRip signature  : AF4FE953
        ->Accurately ripped! (confidence 2)
    Statistics
        Read error                           : 0
        Skipped (treated as error)           : 0
        Edge jitter error (maybe fixed)      : 0
        Atom jitter error (maybe fixed)      : 0
        Drift error (maybe fixed)            : 0
        Dropped bytes error (maybe fixed)    : 0
        Duplicated bytes error (maybe fixed) : 0
        Inconsistency in error sectors       : 0
Track 10
    Filename : /Users/JGunner/Music/iTunes/iTunes Music/The Hunches/The Hunches - Exit Dreams (2009) [FLAC]/10 Fall Drive.flac
    Track gain             : -12.37 dB
    Peak                   : 0.987762
    CRC32 hash (test run)  : 06BB3766
    CRC32 hash             : 06BB3766
    CRC32 hash (skip zero) : 96C64B25
    AccurateRip signature  : F0DB81AE
        ->Accurately ripped! (confidence 2)
    Statistics
        Read error                           : 0
        Skipped (treated as error)           : 0
        Edge jitter error (maybe fixed)      : 0
        Atom jitter error (maybe fixed)      : 0
        Drift error (maybe fixed)            : 0
        Dropped bytes error (maybe fixed)    : 0
        Duplicated bytes error (maybe fixed) : 0
        Inconsistency in error sectors       : 0
Track 11
    Filename : /Users/JGunner/Music/iTunes/iTunes Music/The Hunches/The Hunches - Exit Dreams (2009) [FLAC]/11 Unraveling.flac
    Track gain             : -12.36 dB
    Peak                   : 0.987732
    CRC32 hash (test run)  : A60D4614
    CRC32 hash             : A60D4614
    CRC32 hash (skip zero) : 97F37D84
    AccurateRip signature  : 64E44C9A
        ->Accurately ripped! (confidence 2)
    Statistics
        Read error                           : 0
        Skipped (treated as error)           : 0
        Edge jitter error (maybe fixed)      : 0
        Atom jitter error (maybe fixed)      : 0
        Drift error (maybe fixed)            : 0
        Dropped bytes error (maybe fixed)    : 0
        Duplicated bytes error (maybe fixed) : 0
        Inconsistency in error sectors       : 0
Track 12
    Filename : /Users/JGunner/Music/iTunes/iTunes Music/The Hunches/The Hunches - Exit Dreams (2009) [FLAC]/12 Swim Hole.flac
    Track gain             : -12.77 dB
    Peak                   : 0.768799
    CRC32 hash (test run)  : 5509D839
    CRC32 hash             : 5509D839
    CRC32 hash (skip zero) : F4F6F7BC
    AccurateRip signature  : CD1E7D64
        ->Accurately ripped! (confidence 2)
    Statistics
        Read error                           : 0
        Skipped (treated as error)           : 0
        Edge jitter error (maybe fixed)      : 0
        Atom jitter error (maybe fixed)      : 0
        Drift error (maybe fixed)            : 0
        Dropped bytes error (maybe fixed)    : 0
        Duplicated bytes error (maybe fixed) : 0
        Inconsistency in error sectors       : 0
No errors occurred
End of status report
Код: Выделить всё
TITLE "Exit Dreams"
PERFORMER "The Hunches"
REM GENRE "Punk"
REM DATE "2009"
REM DISCNUMBER 1
REM TOTALDISCS 1
REM DISCID 8209800C
REM REPLAYGAIN_ALBUM_GAIN -12.22 dB
REM REPLAYGAIN_ALBUM_PEAK 0.987762
FILE "01 Actors.flac" WAVE
  TRACK 01 AUDIO
    TITLE "Actors"
    ISRC USA3D0810083
    REM REPLAYGAIN_TRACK_GAIN -10.10 dB
    REM REPLAYGAIN_TRACK_PEAK 0.987762
    INDEX 01 00:00:00
FILE "02 Ate My Teeth.flac" WAVE
  TRACK 02 AUDIO
    TITLE "Ate My Teeth"
    ISRC USA3D0810084
    REM REPLAYGAIN_TRACK_GAIN -12.56 dB
    REM REPLAYGAIN_TRACK_PEAK 0.986542
    INDEX 01 00:00:00
FILE "03 Not Invited.flac" WAVE
  TRACK 03 AUDIO
    TITLE "Not Invited"
    ISRC USA3D0810085
    REM REPLAYGAIN_TRACK_GAIN -8.78 dB
    REM REPLAYGAIN_TRACK_PEAK 0.987732
    INDEX 01 00:00:00
FILE "04 Deaf Ambitions.flac" WAVE
  TRACK 04 AUDIO
    TITLE "Deaf Ambitions"
    ISRC USA3D0810086
    REM REPLAYGAIN_TRACK_GAIN -11.06 dB
    REM REPLAYGAIN_TRACK_PEAK 0.987732
    INDEX 01 00:00:00
FILE "05 From This Window.flac" WAVE
  TRACK 05 AUDIO
    TITLE "From This Window"
    ISRC USA3D0810087
    REM REPLAYGAIN_TRACK_GAIN -8.81 dB
    REM REPLAYGAIN_TRACK_PEAK 0.987640
    INDEX 01 00:00:00
FILE "06 Carnival Debris.flac" WAVE
  TRACK 06 AUDIO
    TITLE "Carnival Debris"
    ISRC USA3D0810088
    REM REPLAYGAIN_TRACK_GAIN -11.15 dB
    REM REPLAYGAIN_TRACK_PEAK 0.987701
    INDEX 01 00:00:00
FILE "07 Street Sweeper.flac" WAVE
  TRACK 07 AUDIO
    TITLE "Street Sweeper"
    ISRC USA3D0810089
    REM REPLAYGAIN_TRACK_GAIN -11.61 dB
    REM REPLAYGAIN_TRACK_PEAK 0.987701
    INDEX 01 00:00:00
FILE "08 Your Sick Blooms.flac" WAVE
  TRACK 08 AUDIO
    TITLE "Your Sick Blooms"
    ISRC USA3D0810090
    REM REPLAYGAIN_TRACK_GAIN -11.09 dB
    REM REPLAYGAIN_TRACK_PEAK 0.987701
    INDEX 01 00:00:00
FILE "09 Pinwheel Spins.flac" WAVE
  TRACK 09 AUDIO
    TITLE "Pinwheel Spins"
    ISRC USA3D0810091
    REM REPLAYGAIN_TRACK_GAIN -13.45 dB
    REM REPLAYGAIN_TRACK_PEAK 0.987762
    INDEX 01 00:00:00
FILE "10 Fall Drive.flac" WAVE
  TRACK 10 AUDIO
    TITLE "Fall Drive"
    ISRC USA3D0810092
    REM REPLAYGAIN_TRACK_GAIN -12.37 dB
    REM REPLAYGAIN_TRACK_PEAK 0.987762
    INDEX 01 00:00:00
FILE "11 Unraveling.flac" WAVE
  TRACK 11 AUDIO
    TITLE "Unraveling"
    ISRC USA3D0810093
    REM REPLAYGAIN_TRACK_GAIN -12.36 dB
    REM REPLAYGAIN_TRACK_PEAK 0.987732
    INDEX 01 00:00:00
FILE "12 Swim Hole.flac" WAVE
  TRACK 12 AUDIO
    TITLE "Swim Hole"
    ISRC USA3D0810094
    REM REPLAYGAIN_TRACK_GAIN -12.77 dB
    REM REPLAYGAIN_TRACK_PEAK 0.768799
    INDEX 01 00:00:00
Код: Выделить всё
fooCDtect - foobar2000 + auCDtect, baralgin.
auCDtect: CD records authenticity detector, version 0.8.2
Copyright (c) 2004 Oleg Berngardt. All rights reserved.
Copyright (c) 2004 Alexander Djourik. All rights reserved.
     mode: 0
===========================================
    Track: 01. Actors
  Quality: CDDA 100%
===========================================
    Track: 02. Ate My Teeth
  Quality: CDDA 100%
===========================================
    Track: 03. Not Invited
  Quality: CDDA 100%
===========================================
    Track: 04. Deaf Ambitions
  Quality: CDDA 100%
===========================================
    Track: 05. From This Window
  Quality: CDDA 100%
===========================================
    Track: 06. Carnival Debris
  Quality: CDDA 100%
===========================================
    Track: 07. Street Sweeper
  Quality: CDDA 100%
===========================================
    Track: 08. Your Sick Blooms
  Quality: CDDA 100%
===========================================
    Track: 09. Pinwheel Spins
  Quality: CDDA 100%
===========================================
    Track: 10. Fall Drive
  Quality: CDDA 100%
===========================================
    Track: 11. Unraveling
  Quality: CDDA 100%
===========================================
    Track: 12. Swim Hole
  Quality: CDDA 100%
===========================================
#77The Hunches
Profile:
Garage rock'n'roll band from Portland (OR, USA).

The Hunches - 4 альбома - 2002-2009, MP3
 
Не забывайте говорить Спасибо. Не уходите с раздачи!   
Торрент: Зарегистрирован [20 июл 2018, 10:30] Скачать торрент
Скачать торрент
[ Размер 11.91 КБ / Просмотров 4 ]
Статус:
Проверен
 
.torrent скачан: 0 раз
Хэш: 4216452396b46c2324695e66790ee5a1d40df2a7
Размер: 273.54 МБ (286 824 270 байт)
Стать Автором раздачи
 
 
Раздал: 0 байт
Скачал: 0 байт
Ратио: Inf.
Сообщения: 487468
Зарегистрирован: 17 апр 2014, 13:57


  • Похожие торренты
    Ответы
    Просмотры
    Последнее сообщение

Вернуться в Indie, Post-Rock & Post-Punk (lossless)

Ресурс не предоставляет электронные версии произведений, а занимается лишь коллекционированием и каталогизацией ссылок, присылаемых и публикуемых на форуме нашими читателями. Если вы являетесь правообладателем какого-либо представленного материала и не желаете чтобы ссылка на него находилась в нашем каталоге, свяжитесь с нами и мы незамедлительно удалим её. Файлы для обмена на трекере предоставлены пользователями сайта, и администрация не несёт ответственности за их содержание. Просьба не заливать файлы, защищенные авторскими правами, а также файлы нелегального содержания!
cron