(Hard Rock, Psychedelic) [CD] Randy Holden - Population II (2001 PL 523) - 1969, FLAC (tracks+.cue), lossless

 
 Статистика раздачи 
Размер: 517.77 МБ   |  Зарегистрирован: 20 июл 2018, 08:55   |   .torrent скачан: 0 раз
Сидеров: 1  [ 0 байт/сек ]     Личеров: 0  [ 0 байт/сек ]  
  

(Hard Rock, Psychedelic) [CD] Randy Holden - Population II (2001 PL 523) - 1969, FLAC (tracks+.cue), lossless

Сообщение Nakazhu » 20 июл 2018, 12:06

Randy Holden / Population II (2001 PL 523)
Жанр: Hard Rock, Psychedelic
Носитель: CD
Страна-производитель диска (релиза): Australia
Год издания: 1969
Издатель (лейбл): Progressive Line
Номер по каталогу: PL 523
Страна исполнителя (группы): US
Аудиокодек: FLAC (*.flac)
Тип рипа: tracks+.cue
Битрейт аудио: lossless
Продолжительность: 01:19:02
Источник (релизер): otsleep
Наличие сканов в содержимом раздачи: да
Треклист:
01. Guitar Song (6:12)
02. Fruit & Iceburgs (5:02)
03. Between Time (1:50)
04. Fruit & Iceburgs (Conclusion) (1:54)
05. Blue My Mind (6:01)
06. Keeper Of My Flame (10:05)
07. Dark Eyes (5:08)
08. Wild Fire (5:38)
09. Scarlet Rose (4:04)
10. Pain In My Heart (4:39)
11. Hell And High Water (5:40)
12. No Trace (4:16)
13. Got Love (4:02)
14. Blue My Mind (4:11)
15. Castle In The Sky (5:14)
16. Dark Eyes (Part Two) (5:07)
Код: Выделить всё
Exact Audio Copy V1.3 from 2. September 2016
EAC extraction logfile from 2. July 2018, 12:22
Randy Holden / Population II
Used drive  : hp HLDS DVDRW  GUD1N   Adapter: 1  ID: 0
Read mode               : Secure
Utilize accurate stream : Yes
Defeat audio cache      : Yes
Make use of C2 pointers : No
Read offset correction                      : 6
Overread into Lead-In and Lead-Out          : No
Fill up missing offset samples with silence : Yes
Delete leading and trailing silent blocks   : No
Null samples used in CRC calculations       : Yes
Used interface                              : Native Win32 interface for Win NT & 2000
Gap handling                                : Appended to previous track
Used output format              : User Defined Encoder
Selected bitrate                : 1024 kBit/s
Quality                         : High
Add ID3 tag                     : No
Command line compressor         : C:\Program Files (x86)\Exact Audio Copy\Flac\flac.exe
Additional command line options : -8 -e -p -V -T "ARTIST=%artist%" -T "TITLE=%title%" -T "ALBUM=%albumtitle%" -T "DATE=%year%" -T "TRACKNUMBER=%tracknr%" -T "GENRE=%genre%" -T "PERFORMER=%albuminterpret%" -T "COMPOSER=%composer%" %haslyrics%--tag-from-file=LYRICS="%lyricsfile%"%haslyrics% -T "ALBUMARTIST=%albumartist%" -T "DISCNUMBER=%cdnumber%" -T "TOTALDISCS=%totalcds%" -T "TOTALTRACKS=%numtracks%" -T "COMMENT=%comment%" %source% -o %dest%
TOC of the extracted CD
     Track |   Start  |  Length  | Start sector | End sector
    ---------------------------------------------------------
        1  |  0:00.00 |  6:11.50 |         0    |    27874
        2  |  6:11.50 |  5:02.00 |     27875    |    50524
        3  | 11:13.50 |  1:49.60 |     50525    |    58759
        4  | 13:03.35 |  1:53.50 |     58760    |    67284
        5  | 14:57.10 |  6:00.67 |     67285    |    94351
        6  | 20:58.02 | 10:04.70 |     94352    |   139721
        7  | 31:02.72 |  5:07.45 |    139722    |   162791
        8  | 36:10.42 |  5:38.23 |    162792    |   188164
        9  | 41:48.65 |  4:04.26 |    188165    |   206490
       10  | 45:53.16 |  4:39.29 |    206491    |   227444
       11  | 50:32.45 |  5:39.62 |    227445    |   252931
       12  | 56:12.32 |  4:15.55 |    252932    |   272111
       13  | 60:28.12 |  4:02.08 |    272112    |   290269
       14  | 64:30.20 |  4:10.65 |    290270    |   309084
       15  | 68:41.10 |  5:14.02 |    309085    |   332636
       16  | 73:55.12 |  5:06.45 |    332637    |   355631
Track  1
     Filename F:\Lossless CD Rips\zzzz = files for torrents\01 - Guitar Song.wav
     Pre-gap length  0:00:02.00
     Peak level 98.0 %
     Extraction speed 3.3 X
     Track quality 100.0 %
     Test CRC 2BC2D124
     Copy CRC 2BC2D124
     Accurately ripped (confidence 1)  [FB9F12E8]  (AR v2)
     Copy OK
Track  2
     Filename F:\Lossless CD Rips\zzzz = files for torrents\02 - Fruit & Iceburgs.wav
     Pre-gap length  0:00:01.37
     Peak level 98.0 %
     Extraction speed 3.6 X
     Track quality 100.0 %
     Test CRC 48C24D2F
     Copy CRC 48C24D2F
     Accurately ripped (confidence 1)  [C25A6A1A]  (AR v2)
     Copy OK
Track  3
     Filename F:\Lossless CD Rips\zzzz = files for torrents\03 - Between Time.wav
     Peak level 98.0 %
     Extraction speed 3.2 X
     Track quality 100.0 %
     Test CRC 62547026
     Copy CRC 62547026
     Accurately ripped (confidence 1)  [8D8E26ED]  (AR v2)
     Copy OK
Track  4
     Filename F:\Lossless CD Rips\zzzz = files for torrents\04 - Fruit & Iceburgs (Conclusion).wav
     Peak level 98.0 %
     Extraction speed 3.3 X
     Track quality 100.0 %
     Test CRC FE9587FE
     Copy CRC FE9587FE
     Accurately ripped (confidence 1)  [5AD28155]  (AR v2)
     Copy OK
Track  5
     Filename F:\Lossless CD Rips\zzzz = files for torrents\05 - Blue My Mind.wav
     Pre-gap length  0:00:02.46
     Peak level 98.0 %
     Extraction speed 3.8 X
     Track quality 99.9 %
     Test CRC F0FA483E
     Copy CRC F0FA483E
     Accurately ripped (confidence 1)  [1E7D05A4]  (AR v2)
     Copy OK
Track  6
     Filename F:\Lossless CD Rips\zzzz = files for torrents\06 - Keeper Of My Flame.wav
     Peak level 98.0 %
     Extraction speed 4.8 X
     Track quality 100.0 %
     Test CRC 38035F03
     Copy CRC 38035F03
     Accurately ripped (confidence 1)  [050CBA8B]  (AR v2)
     Copy OK
Track  7
     Filename F:\Lossless CD Rips\zzzz = files for torrents\07 - Dark Eyes.wav
     Pre-gap length  0:00:02.56
     Peak level 98.0 %
     Extraction speed 2.1 X
     Track quality 100.0 %
     Test CRC AC12A7B9
     Copy CRC AC12A7B9
     Accurately ripped (confidence 1)  [A20056A9]  (AR v2)
     Copy OK
Track  8
     Filename F:\Lossless CD Rips\zzzz = files for torrents\08 - Wild Fire.wav
     Pre-gap length  0:00:01.56
     Peak level 98.0 %
     Extraction speed 2.1 X
     Track quality 99.9 %
     Test CRC 823F6B50
     Copy CRC 823F6B50
     Accurately ripped (confidence 1)  [87A4BFDF]  (AR v2)
     Copy OK
Track  9
     Filename F:\Lossless CD Rips\zzzz = files for torrents\09 - Scarlet Rose.wav
     Pre-gap length  0:00:01.04
     Peak level 98.0 %
     Extraction speed 2.0 X
     Track quality 99.9 %
     Test CRC 37E424E6
     Copy CRC 37E424E6
     Accurately ripped (confidence 1)  [36E01E5E]  (AR v2)
     Copy OK
Track 10
     Filename F:\Lossless CD Rips\zzzz = files for torrents\10 - Pain In My Heart.wav
     Pre-gap length  0:00:01.85
     Peak level 98.0 %
     Extraction speed 2.4 X
     Track quality 100.0 %
     Test CRC 312585BB
     Copy CRC 312585BB
     Accurately ripped (confidence 1)  [28B083C6]  (AR v2)
     Copy OK
Track 11
     Filename F:\Lossless CD Rips\zzzz = files for torrents\11 - Hell And High Water.wav
     Pre-gap length  0:00:01.12
     Peak level 98.0 %
     Extraction speed 2.5 X
     Track quality 100.0 %
     Test CRC 21B4A3BA
     Copy CRC 21B4A3BA
     Accurately ripped (confidence 1)  [DD409061]  (AR v2)
     Copy OK
Track 12
     Filename F:\Lossless CD Rips\zzzz = files for torrents\12 - No Trace.wav
     Pre-gap length  0:00:01.40
     Peak level 98.0 %
     Extraction speed 2.5 X
     Track quality 100.0 %
     Test CRC CFFE7ED8
     Copy CRC CFFE7ED8
     Accurately ripped (confidence 1)  [4C6375F3]  (AR v2)
     Copy OK
Track 13
     Filename F:\Lossless CD Rips\zzzz = files for torrents\13 - Got Love.wav
     Pre-gap length  0:00:01.16
     Peak level 98.0 %
     Extraction speed 2.6 X
     Track quality 100.0 %
     Test CRC 923BB8D2
     Copy CRC 923BB8D2
     Accurately ripped (confidence 1)  [D216680C]  (AR v2)
     Copy OK
Track 14
     Filename F:\Lossless CD Rips\zzzz = files for torrents\14 - Blue My Mind.wav
     Pre-gap length  0:00:01.06
     Peak level 98.0 %
     Extraction speed 2.7 X
     Track quality 100.0 %
     Test CRC 262AE27B
     Copy CRC 262AE27B
     Accurately ripped (confidence 1)  [90F14C0D]  (AR v2)
     Copy OK
Track 15
     Filename F:\Lossless CD Rips\zzzz = files for torrents\15 - Castle In The Sky.wav
     Peak level 98.0 %
     Extraction speed 2.5 X
     Track quality 99.9 %
     Test CRC DF849B29
     Copy CRC DF849B29
     Accurately ripped (confidence 1)  [C204DE4B]  (AR v2)
     Copy OK
Track 16
     Filename F:\Lossless CD Rips\zzzz = files for torrents\16 - Dark Eyes (Part Two).wav
     Pre-gap length  0:00:02.02
     Peak level 98.0 %
     Extraction speed 2.9 X
     Track quality 100.0 %
     Test CRC 66687B2F
     Copy CRC 66687B2F
     Accurately ripped (confidence 1)  [AB23922B]  (AR v2)
     Copy OK
All tracks accurately ripped
No errors occurred
End of status report
---- CUETools DB Plugin V2.1.6
[CTDB TOCID: BVNhvAIExhf0xBj.dRam76EH_Gg-] found
Submit result: BVNhvAIExhf0xBj.dRam76EH_Gg- has been confirmed
Track | CTDB Status
  1   | (8/8) Accurately ripped
  2   | (8/8) Accurately ripped
  3   | (8/8) Accurately ripped
  4   | (8/8) Accurately ripped
  5   | (8/8) Accurately ripped
  6   | (8/8) Accurately ripped
  7   | (8/8) Accurately ripped
  8   | (8/8) Accurately ripped
  9   | (8/8) Accurately ripped
 10   | (8/8) Accurately ripped
 11   | (8/8) Accurately ripped
 12   | (8/8) Accurately ripped
 13   | (8/8) Accurately ripped
 14   | (8/8) Accurately ripped
 15   | (8/8) Accurately ripped
 16   | (8/8) Accurately ripped
==== Log checksum 57AD9938A2FC0B3DDDE370F996D96179A52835F4A28706CEE28F1F87670E3D02 ====
Код: Выделить всё
REM GENRE Rock
REM DATE 1971
REM DISCID E9128510
REM COMMENT "ExactAudioCopy v1.3"
PERFORMER "Randy Holden"
TITLE "Population II"
REM COMPOSER ""
FILE "01 - Guitar Song.wav" WAVE
  TRACK 01 AUDIO
    TITLE "Guitar Song"
    PERFORMER "Randy Holden"
    REM COMPOSER ""
    INDEX 01 00:00:00
  TRACK 02 AUDIO
    TITLE "Fruit & Iceburgs"
    PERFORMER "Randy Holden"
    REM COMPOSER ""
    INDEX 00 06:10:22
FILE "02 - Fruit & Iceburgs.wav" WAVE
    INDEX 01 00:00:00
FILE "03 - Between Time.wav" WAVE
  TRACK 03 AUDIO
    TITLE "Between Time"
    PERFORMER "Randy Holden"
    REM COMPOSER ""
    INDEX 01 00:00:00
FILE "04 - Fruit & Iceburgs (Conclusion).wav" WAVE
  TRACK 04 AUDIO
    TITLE "Fruit & Iceburgs (Conclusion)"
    PERFORMER "Randy Holden"
    REM COMPOSER ""
    INDEX 01 00:00:00
  TRACK 05 AUDIO
    TITLE "Blue My Mind"
    PERFORMER "Randy Holden"
    REM COMPOSER ""
    INDEX 00 01:51:15
FILE "05 - Blue My Mind.wav" WAVE
    INDEX 01 00:00:00
FILE "06 - Keeper Of My Flame.wav" WAVE
  TRACK 06 AUDIO
    TITLE "Keeper Of My Flame"
    PERFORMER "Randy Holden"
    REM COMPOSER ""
    INDEX 01 00:00:00
  TRACK 07 AUDIO
    TITLE "Dark Eyes"
    PERFORMER "Randy Holden"
    REM COMPOSER ""
    INDEX 00 10:02:28
FILE "07 - Dark Eyes.wav" WAVE
    INDEX 01 00:00:00
  TRACK 08 AUDIO
    TITLE "Wild Fire"
    PERFORMER "Randy Holden"
    REM COMPOSER ""
    INDEX 00 05:06:03
FILE "08 - Wild Fire.wav" WAVE
    INDEX 01 00:00:00
  TRACK 09 AUDIO
    TITLE "Scarlet Rose"
    PERFORMER "Randy Holden"
    REM COMPOSER ""
    INDEX 00 05:37:20
FILE "09 - Scarlet Rose.wav" WAVE
    INDEX 01 00:00:00
  TRACK 10 AUDIO
    TITLE "Pain In My Heart"
    PERFORMER "Randy Holden"
    REM COMPOSER ""
    INDEX 00 04:02:37
FILE "10 - Pain In My Heart.wav" WAVE
    INDEX 01 00:00:00
  TRACK 11 AUDIO
    TITLE "Hell And High Water"
    PERFORMER "Randy Holden"
    REM COMPOSER ""
    INDEX 00 04:38:20
FILE "11 - Hell And High Water.wav" WAVE
    INDEX 01 00:00:00
  TRACK 12 AUDIO
    TITLE "No Trace"
    PERFORMER "Randy Holden"
    REM COMPOSER ""
    INDEX 00 05:38:32
FILE "12 - No Trace.wav" WAVE
    INDEX 01 00:00:00
  TRACK 13 AUDIO
    TITLE "Got Love"
    PERFORMER "Randy Holden"
    REM COMPOSER ""
    INDEX 00 04:14:43
FILE "13 - Got Love.wav" WAVE
    INDEX 01 00:00:00
  TRACK 14 AUDIO
    TITLE "Blue My Mind"
    PERFORMER "Randy Holden"
    REM COMPOSER ""
    INDEX 00 04:01:03
FILE "14 - Blue My Mind.wav" WAVE
    INDEX 01 00:00:00
FILE "15 - Castle In The Sky.wav" WAVE
  TRACK 15 AUDIO
    TITLE "Castle In The Sky"
    PERFORMER "Randy Holden"
    REM COMPOSER ""
    INDEX 01 00:00:00
  TRACK 16 AUDIO
    TITLE "Dark Eyes (Part Two)"
    PERFORMER "Randy Holden"
    REM COMPOSER ""
    INDEX 00 05:12:00
FILE "16 - Dark Eyes (Part Two).wav" WAVE
    INDEX 01 00:00:00
Код: Выделить всё
-----------------------
DON'T MODIFY THIS FILE
-----------------------
PERFORMER: auCDtect Task Manager, ver. 1.6.0 RC1 build 1.6.0.1
Copyright (c) 2008-2010 y-soft. All rights reserved
[url=http://y-soft.org]http://y-soft.org[/url]
ANALYZER: auCDtect: CD records authenticity detector, version 0.8.2
Copyright (c) 2004 Oleg Berngardt. All rights reserved.
Copyright (c) 2004 Alexander Djourik. All rights reserved.
FILE: 16 - Dark Eyes (Part Two).flac
  Size: 32278580 Hash: 2416714BF3622335BBF44D8AD2710060 Accuracy: -m0
  Conclusion: CDDA 100%
  Signature: 31B011D87291223E51995D281E18DDB003952661
FILE: 15 - Castle In The Sky.flac
  Size: 31532874 Hash: DDC46384CC5345C0A675BE3354089BD6 Accuracy: -m0
  Conclusion: CDDA 100%
  Signature: CCB4F92C91DD1D3DBFD27076AB9CA0CDABAFC6EC
FILE: 14 - Blue My Mind.flac
  Size: 30812589 Hash: BECEC43A08E7B684D7886DC664AA1888 Accuracy: -m0
  Conclusion: CDDA 100%
  Signature: AE6081BF96A54CF90FACB696638D12A42546EF80
FILE: 13 - Got Love.flac
  Size: 29085217 Hash: 9AD07953D23F8D739ADDD170AE458FB4 Accuracy: -m0
  Conclusion: CDDA 100%
  Signature: 606841529A38646692291334531FF365669DEE8C
FILE: 12 - No Trace.flac
  Size: 31482972 Hash: 470017F6CE49760B3309A7F94C4186FC Accuracy: -m0
  Conclusion: CDDA 100%
  Signature: 8B07C7F18F20D5DF6E0FAAD9BBE49A0527D56BFE
FILE: 11 - Hell And High Water.flac
  Size: 36754540 Hash: B6DAF51E96F5A2D6E07EC4B841135404 Accuracy: -m0
  Conclusion: CDDA 100%
  Signature: 6D99497A0A20EE18359CD4898F18A58DE97130FA
FILE: 10 - Pain In My Heart.flac
  Size: 32218872 Hash: C04C6D2E0C1843D28F820DA478F4D492 Accuracy: -m0
  Conclusion: CDDA 99%
  Signature: CF55B48D5C5334B01160FA069D28BA9DC3F860E4
FILE: 09 - Scarlet Rose.flac
  Size: 30568653 Hash: E3D2B1D3B39B541A73AF06718AB288DC Accuracy: -m0
  Conclusion: CDDA 99%
  Signature: FBF1FE0F1CC52760DF3821DBE66CD8F9121793B1
FILE: 08 - Wild Fire.flac
  Size: 41536762 Hash: F8CBA069C72B946DB29C4FB900888E54 Accuracy: -m0
  Conclusion: CDDA 100%
  Signature: A3361E0708901D6839728EEAF1609D3682799E80
FILE: 07 - Dark Eyes.flac
  Size: 33136425 Hash: CC234B42DC64FB0DEB365EBCD8D6D78D Accuracy: -m0
  Conclusion: CDDA 99%
  Signature: BB954158AE65965A080911B1BD25FC86BD43BD60
FILE: 06 - Keeper Of My Flame.flac
  Size: 63400579 Hash: 7B56F03847A9501D41BBEFE3C58C3485 Accuracy: -m0
  Conclusion: CDDA 100%
  Signature: A51041384B4F8F79C8D1D52E33178D194A3BE9CA
FILE: 05 - Blue My Mind.flac
  Size: 39969726 Hash: 5DBF405C3B4B7D61B6E106F04F1415B9 Accuracy: -m0
  Conclusion: CDDA 100%
  Signature: 0B5ECE6597F59879D3926D00F37047F8EC78B85E
FILE: 04 - Fruit & Iceburgs (Conclusion).flac
  Size: 11557940 Hash: A47BB6A860563A1051952F56A9F01FDB Accuracy: -m0
  Conclusion: CDDA 100%
  Signature: B6725F836AA7C042F467207B61E6BC2640CC1461
FILE: 03 - Between Time.flac
  Size: 11628374 Hash: 7B9ACF9613E90A2ED99BFFBF227C7B5E Accuracy: -m0
  Conclusion: CDDA 100%
  Signature: F9B82F8AB74498B9355D2F036E941558C647EA72
FILE: 02 - Fruit & Iceburgs.flac
  Size: 32084877 Hash: 477A34A5E1D0F3CD2C1687BE1175D837 Accuracy: -m0
  Conclusion: CDDA 100%
  Signature: 33DB71F5CBE0F23D0DEB9F725E04288504A3069F
FILE: 01 - Guitar Song.flac
  Size: 39627772 Hash: 24895455446CD9FD4415749BF3436F25 Accuracy: -m0
  Conclusion: CDDA 99%
  Signature: 2E2C4C5E5429AF296AD873F3DF38629EE8F6569B
https://www.discogs.com/Randy-Holden-Population-II/release/2136932
Progressive Line - PL 523 Format: CD, Album, Reissue, Remastered, Unofficial Release Country: Australia Released: 2001
Personnel
Bass – Randy Holden (tracks: 1-6), Robert Blair (tracks: 7-14)
Drums – Chris Lockheed (tracks: 1-6), Paul Whaley (tracks: 7-14)
Guitar, Vocals, Producer, Written-By – Randy Holden
Рэнди Холден - рок-гитарист и вокалист родом из штат Pennsylvania. В 60-70-е годы известен как участник групп The Iridescents (blues rock), Fender IV (далее The Sons of Adam) (surf rock/psychedelic rock), The Other Half (garage psychedelic rock), Blue Cheer (1969, вместо Leigh Stephens). В 1969 году записал альбом Population II вместе с ударником Chris Lockheed (отсюда и название - Популяция из двоих). Выпуск этого альбома сделал Холдена банкротом, он продал всё оборудование и на два десятилетия исчез из музыки. В 1993 году вернулся, записал альбом Guitar God (с участием Paul Whaley - ударника Blue Cheer) и ещё 3 альбома... Явный поклонник гитары Кита Ричардса (The Rolling Stones) ещё с тех времён, когда The Sons of Adam открывали концерты Стоунз. Но Ричардс никогда так тяжело и "грязно" не играл...
https://en.wikipedia.org/wiki/Randy_Holden
Randy Holden (born July 2, 1945) is an American guitarist best known for his involvement with the West Coast blues-rock group Blue Cheer.
Discography
The Fender IV
Mar Gaya/You Better Tell Me Now (1964)
Malibu Run/Everybody Up (1965)
Fender IV: Surf 101 - Live (2016) (DVD)
Sons of Adam
Take My Hand/Tomorrow's Gonna Be Another Day
Mister, You're A Better Man Than I/Saturday's Son
Without Love
I Told You Once Before
You Make Me Feel Good
The Other Half
The Other Half (1968)
Blue Cheer
New! Improved! (1969)
Lucifer
Unreleased album (1969–1970)
Touch of Heaven (collaborative project with opera singer Jaclyn Guthrie)
Visions of You (2010)
Solo
Population II (1970)
Guitar God (1996)
Guitar God 2001 (2001)
Surf Guitar God 1963/2001 (2007) (Fender IV compilation plus new music)
Raptor (2008)
Psychedelic Blue (2015)
Код: Выделить всё
foobar2000 1.3.9 / Dynamic Range Meter 1.1.1
log date: 2018-07-20 11:38:18
--------------------------------------------------------------------------------
Analyzed: Randy Holden / Population II
--------------------------------------------------------------------------------
DR         Peak         RMS     Duration Track
--------------------------------------------------------------------------------
DR8       -0.17 dB   -10.02 dB      6:12 01-Guitar Song
DR7       -0.17 dB    -9.18 dB      5:02 02-Fruit & Iceburgs
DR7       -0.17 dB    -8.96 dB      1:50 03-Between Time
DR7       -0.17 dB    -9.08 dB      1:54 04-Fruit & Iceburgs (Conclusion)
DR7       -0.17 dB    -8.43 dB      6:01 05-Blue My Mind
DR7       -0.17 dB    -9.31 dB     10:05 06-Keeper Of My Flame
DR8       -0.17 dB    -9.44 dB      5:08 07-Dark Eyes
DR8       -0.17 dB    -9.20 dB      5:38 08-Wild Fire
DR8       -0.17 dB    -9.83 dB      4:04 09-Scarlet Rose
DR7       -0.17 dB    -8.47 dB      4:39 10-Pain In My Heart
DR8       -0.17 dB   -10.02 dB      5:40 11-Hell And High Water
DR8       -0.17 dB    -9.44 dB      4:16 12-No Trace
DR8       -0.17 dB   -10.10 dB      4:02 13-Got Love
DR8       -0.17 dB    -9.28 dB      4:11 14-Blue My Mind
DR9       -0.17 dB   -11.09 dB      5:14 15-Castle In The Sky
DR8       -0.17 dB    -9.98 dB      5:07 16-Dark Eyes (Part Two)
--------------------------------------------------------------------------------
Number of tracks:  16
Official DR value: DR8
Samplerate:        44100 Hz
Channels:          2
Bits per sample:   16
Bitrate:           842 kbps
Codec:             FLAC
================================================================================
Здесь лога нет
Randy Holden lossless
 
Не забывайте говорить Спасибо. Не уходите с раздачи!   
Торрент: Зарегистрирован [20 июл 2018, 08:55] Скачать торрент
Скачать торрент
[ Размер 21.93 КБ / Просмотров 17 ]
Статус:
Проверен
 
.torrent скачан: 0 раз
Хэш: bab6e3ff29a189af3b197bcb3ac4d1a913390018
Размер: 517.77 МБ (542 923 963 байт)
Стать Автором раздачи
 
 
Раздал: 0 байт
Скачал: 0 байт
Ратио: Inf.
Сообщения: 487468
Зарегистрирован: 17 апр 2014, 13:57


  • Похожие торренты
    Ответы
    Просмотры
    Последнее сообщение

Вернуться в Classic Rock & Hard Rock (lossless)

Ресурс не предоставляет электронные версии произведений, а занимается лишь коллекционированием и каталогизацией ссылок, присылаемых и публикуемых на форуме нашими читателями. Если вы являетесь правообладателем какого-либо представленного материала и не желаете чтобы ссылка на него находилась в нашем каталоге, свяжитесь с нами и мы незамедлительно удалим её. Файлы для обмена на трекере предоставлены пользователями сайта, и администрация не несёт ответственности за их содержание. Просьба не заливать файлы, защищенные авторскими правами, а также файлы нелегального содержания!
cron