Тюрьма / Prison (Ренни Харлин / Renny Harlin) [1988, США, триллер, драма, криминал, DVDRip] AVO (Александр Кашкин) + VO (МладоКашкин - VHS)

 
 Статистика раздачи 
Размер: 1.6 ГБ   |  Зарегистрирован: 18 июл 2018, 14:03   |   .torrent скачан: 0 раз
Сидеров: 1  [ 0 байт/сек ]     Личеров: 0  [ 0 байт/сек ]  
  

Тюрьма / Prison (Ренни Харлин / Renny Harlin) [1988, США, триллер, драма, криминал, DVDRip] AVO (Александр Кашкин) + VO (МладоКашкин - VHS)

Сообщение Nakazhu » 20 июл 2018, 09:14

Тюрьма / Prison
Страна: США
Жанр: триллер, драма, криминал
Год выпуска: 1988
Продолжительность: 01:39:24

Перевод: Авторский (одноголосый закадровый) Александр Кашкин
Перевод 2: Одноголосый закадровый МладоКашкин - VHS
Субтитры: нет
Режиссер: Ренни Харлин / Renny Harlin
В ролях: Вигго Мортенсен, Челси Филд, Лейн Смит, Линкольн Килпэтрик, Том Эверетт, Иван Кэйн, Андре Де Шилдс, Том «Тайни» Листер мл.
Описание: В 1964 году Чарлз Форсайт был посажен на электрический стул за убийство, совершенное им в тюрьме. Жалобы заключенных на пытки и жестокость привели к закрытию тюрьмы. Через двадцать лет тюрьму открыли, и во главе ее стал тот же директор, что и прежде. Дух казненного возвращается, чтобы отомстить своему тюремщику....
Доп. информация: Выражаю огромную благодарность Нордеру за синхронизацию и чистку звуковых дорожек.
Сэмпл: http://multi-up.com/1204024
Качество видео: DVDRip (Исходник - DVD9)
Формат видео: AVI

Видео: XviD 73, 784x384, (1,85:1), 25,000 fps, 1659 Кбит/с, 8 бит
Аудио: Русский (АС3, 6 ch (Front: L C R, Side: L R, LFE), 48,0 KHz, 448 Kbps)
Аудио 2: Русский (АС3, 2 ch (Front: L R), 48,0 KHz, 192 Kbps)
Код: Выделить всё
Общее
Полное имя                               : H:\Фильмы на трекер\Тюрьма  (триллер, драма, криминал 1988 год).avi
Формат                                   : AVI
Формат/Информация                        : Audio Video Interleave
Размер файла                             : 1,47 Гбайт
Продолжительность                        : 1 ч. 39 м.
Общий поток                              : 2117 Кбит/сек
Программа кодирования                    : VirtualDubMod 1.5.10.2 (build 2540/release)
Библиотека кодирования                   : VirtualDubMod build 2540/release
Видео
Идентификатор                            : 0
Формат                                   : MPEG-4 Visual
Профиль формата                          : Advanced Simple@L5
Параметр BVOP формата                    : 2
Параметр QPel формата                    : Нет
Параметр GMC формата                     : Без точки перехода
Параметр матрицы формата                 : Выборочная
Идентификатор кодека                     : XVID
Идентификатор кодека/Подсказка           : XviD
Продолжительность                        : 1 ч. 39 м.
Битрейт                                  : 1659 Кбит/сек
Ширина                                   : 704 пикселя
Высота                                   : 384 пикселя
Соотношение сторон                       : 1,85:1
Частота кадров                           : 25,000 кадров/сек
Цветовое пространство                    : YUV
Субдискретизация насыщенности            : 4:2:0
Битовая глубина                          : 8 бит
Тип развёртки                            : Прогрессивная
Метод сжатия                             : С потерями
Бит/(Пиксели*Кадры)                      : 0.245
Размер потока                            : 1,15 Гбайт (78%)
Библиотека кодирования                   : XviD 73
Аудио
Идентификатор                            : 1
Формат                                   : AC-3
Формат/Информация                        : Audio Coding 3
Расширение режима                        : CM (complete main)
Параметр Endianness формата              : Big
Идентификатор кодека                     : 2000
Продолжительность                        : 1 ч. 39 м.
Вид битрейта                             : Постоянный
Битрейт                                  : 448 Кбит/сек
Каналы                                   : 6 каналов
Расположение каналов                     : Front: L C R, Side: L R, LFE
Частота                                  : 48,0 КГц
Частота кадров                           : 31,250 кадров/сек (1536 spf)
Метод сжатия                             : С потерями
Задержка видео                           : 8 мс.
Размер потока                            : 319 Мбайт (21%)
Выравнивание                             : Разделение по промежуткам
Продолжительность промежутка             : 40  мс. (1,00 видеокадр)
Время предзагрузки промежутка            : 500  мс.
 
Не забывайте говорить Спасибо. Не уходите с раздачи!   
Торрент: Зарегистрирован [18 июл 2018, 14:03] Скачать торрент
Скачать торрент
[ Размер 16.8 КБ / Просмотров 2 ]
Статус:
Проверен
 
.torrent скачан: 0 раз
Хэш: d85985bb3971500c37db0ab4b1bcff302537dc59
Размер: 1.6 ГБ (1 722 555 392 байт)
Стать Автором раздачи
 
 
Раздал: 0 байт
Скачал: 0 байт
Ратио: Inf.
Сообщения: 487468
Зарегистрирован: 17 апр 2014, 13:57


  • Похожие торренты
    Ответы
    Просмотры
    Последнее сообщение

Вернуться в Зарубежные фильмы до 1990 года

Ресурс не предоставляет электронные версии произведений, а занимается лишь коллекционированием и каталогизацией ссылок, присылаемых и публикуемых на форуме нашими читателями. Если вы являетесь правообладателем какого-либо представленного материала и не желаете чтобы ссылка на него находилась в нашем каталоге, свяжитесь с нами и мы незамедлительно удалим её. Файлы для обмена на трекере предоставлены пользователями сайта, и администрация не несёт ответственности за их содержание. Просьба не заливать файлы, защищенные авторскими правами, а также файлы нелегального содержания!
cron