(Bop) [CD] Joe Albany & Warne Marsh - The Right Combination - 1957 (1990 OJC), FLAC (tracks+.cue), lossless

 
 Статистика раздачи 
Размер: 145.25 МБ   |  Зарегистрирован: 19 июл 2018, 22:04   |   .torrent скачан: 0 раз
Сидеров: 1  [ 0 байт/сек ]     Личеров: 0  [ 0 байт/сек ]  
  

(Bop) [CD] Joe Albany & Warne Marsh - The Right Combination - 1957 (1990 OJC), FLAC (tracks+.cue), lossless

Сообщение Nakazhu » 20 июл 2018, 01:14

Joe Albany & Warne Marsh - The Right Combination
Жанр: Bop
Носитель: CD
Страна-производитель диска (релиза): США
Год издания: 1990
Издатель (лейбл): Riverside/OJC
Номер по каталогу: OJCCD-1749-2
Аудиокодек: FLAC (*.flac)
Тип рипа: tracks+.cue
Битрейт аудио: lossless
Продолжительность: 42:47
Источник (релизер): Paence
Наличие сканов в содержимом раздачи: нет
Треклист:
01. Daahoud (Brown) - 4:57
02. Angel Eyes (Brent-Dennis) - 6:10
03. I Love You (Porter) - 8:34
04. Body and Soul (Heyman-Sour-Green) - 8:26
05. It's You or No One (Cahn-Styne) - 5:02
06. All the Things You Are (Hammerstein-Kern) - 7:23
07. The Nearness of You (Washington-Carmichael) - 2:15
Состав:
Warne Marsh - tenor saxophone
Joe Albany - piano
Bob Whitlock - bass
Recorded in Los Angeles in September 1957.
Код: Выделить всё
Exact Audio Copy V1.3 from 2. September 2016
EAC extraction logfile from 17. July 2018, 4:54
Joe Albany / The Right Combination
Used drive  : HL-DT-STDVD-RAM GH22LS30   Adapter: 1  ID: 0
Read mode               : Secure
Utilize accurate stream : Yes
Defeat audio cache      : Yes
Make use of C2 pointers : No
Read offset correction                      : 102
Overread into Lead-In and Lead-Out          : No
Fill up missing offset samples with silence : Yes
Delete leading and trailing silent blocks   : No
Null samples used in CRC calculations       : Yes
Used interface                              : Native Win32 interface for Win NT & 2000
Gap handling                                : Appended to previous track
Used output format              : User Defined Encoder
Selected bitrate                : 1024 kBit/s
Quality                         : High
Add ID3 tag                     : No
Command line compressor         : C:\Program Files (x86)\Exact Audio Copy\Flac\flac.exe
Additional command line options : -8 -e -p -V -T "ARTIST=%artist%" -T "TITLE=%title%" -T "ALBUM=%albumtitle%" -T "DATE=%year%" -T "TRACKNUMBER=%tracknr%" -T "GENRE=%genre%" -T "PERFORMER=%albuminterpret%" -T "COMPOSER=%composer%" %haslyrics%--tag-from-file=LYRICS="%lyricsfile%"%haslyrics% -T "ALBUMARTIST=%albumartist%" -T "DISCNUMBER=%cdnumber%" -T "TOTALDISCS=%totalcds%" -T "TOTALTRACKS=%numtracks%" -T "COMMENT=%comment%" %source% -o %dest%
TOC of the extracted CD
     Track |   Start  |  Length  | Start sector | End sector
    ---------------------------------------------------------
        1  |  0:00.00 |  4:57.02 |         0    |    22276
        2  |  4:57.02 |  6:10.08 |     22277    |    50034
        3  | 11:07.10 |  8:34.15 |     50035    |    88599
        4  | 19:41.25 |  8:26.30 |     88600    |   126579
        5  | 28:07.55 |  5:01.47 |    126580    |   149201
        6  | 33:09.27 |  7:23.18 |    149202    |   182444
        7  | 40:32.45 |  2:14.42 |    182445    |   192536
Track  1
     Filename F:\Joe Albany With Warne Marsh ‎- The Right Combination (1957) [Remastered] [FLAC]\01 - Daahoud.wav
     Pre-gap length  0:00:02.00
     Peak level 53.5 %
     Extraction speed 1.6 X
     Track quality 100.0 %
     Test CRC 86898507
     Copy CRC 86898507
     Accurately ripped (confidence 1)  [3B04E5A0]  (AR v2)
     Copy OK
Track  2
     Filename F:\Joe Albany With Warne Marsh ‎- The Right Combination (1957) [Remastered] [FLAC]\02 - Angel Eyes.wav
     Pre-gap length  0:00:03.17
     Peak level 55.7 %
     Extraction speed 1.9 X
     Track quality 100.0 %
     Test CRC 6709142F
     Copy CRC 6709142F
     Accurately ripped (confidence 1)  [D3547F9E]  (AR v2)
     Copy OK
Track  3
     Filename F:\Joe Albany With Warne Marsh ‎- The Right Combination (1957) [Remastered] [FLAC]\03 - I Love You.wav
     Pre-gap length  0:00:02.70
     Peak level 70.9 %
     Extraction speed 2.3 X
     Track quality 100.0 %
     Test CRC 9DEFA2AB
     Copy CRC 9DEFA2AB
     Accurately ripped (confidence 1)  [D1901DE6]  (AR v2)
     Copy OK
Track  4
     Filename F:\Joe Albany With Warne Marsh ‎- The Right Combination (1957) [Remastered] [FLAC]\04 - Body And Soul.wav
     Pre-gap length  0:00:03.33
     Peak level 60.2 %
     Extraction speed 2.6 X
     Track quality 100.0 %
     Test CRC 63445366
     Copy CRC 63445366
     Accurately ripped (confidence 1)  [3F0FB3B9]  (AR v2)
     Copy OK
Track  5
     Filename F:\Joe Albany With Warne Marsh ‎- The Right Combination (1957) [Remastered] [FLAC]\05 - It's You Or No One.wav
     Pre-gap length  0:00:04.10
     Peak level 70.6 %
     Extraction speed 2.7 X
     Track quality 100.0 %
     Test CRC 1A62E641
     Copy CRC 1A62E641
     Accurately ripped (confidence 1)  [B17DC8AA]  (AR v2)
     Copy OK
Track  6
     Filename F:\Joe Albany With Warne Marsh ‎- The Right Combination (1957) [Remastered] [FLAC]\06 - All The Things You Are.wav
     Pre-gap length  0:00:02.72
     Peak level 61.2 %
     Extraction speed 2.7 X
     Track quality 99.9 %
     Test CRC F1F99A0A
     Copy CRC F1F99A0A
     Accurately ripped (confidence 1)  [2E12F236]  (AR v2)
     Copy OK
Track  7
     Filename F:\Joe Albany With Warne Marsh ‎- The Right Combination (1957) [Remastered] [FLAC]\07 - The Nearness Of You.wav
     Pre-gap length  0:00:02.73
     Peak level 29.7 %
     Extraction speed 2.5 X
     Track quality 100.0 %
     Test CRC 9088BC36
     Copy CRC 9088BC36
     Accurately ripped (confidence 1)  [3A10F2A0]  (AR v2)
     Copy OK
All tracks accurately ripped
No errors occurred
End of status report
---- CUETools DB Plugin V2.1.6
[CTDB TOCID: BzuvP6iUd4TyH9fE5GEPj38Pc_k-] found
Submit result: BzuvP6iUd4TyH9fE5GEPj38Pc_k- has been confirmed
Track | CTDB Status
  1   | (4/4) Accurately ripped
  2   | (4/4) Accurately ripped
  3   | (4/4) Accurately ripped
  4   | (4/4) Accurately ripped
  5   | (4/4) Accurately ripped
  6   | (4/4) Accurately ripped
  7   | (4/4) Accurately ripped
==== Log checksum 1DB63DE7974FAB59D14DE80478331745EF3FE9C60B75D27595FDDC729535A4B5 ====
Код: Выделить всё
REM GENRE Jazz
REM DATE 1957
REM DISCID 710A0707
REM COMMENT "ExactAudioCopy v1.3"
PERFORMER "Joe Albany & Warne Marsh"
TITLE "The Right Combination"
FILE "01 - Daahoud.wav" WAVE
  TRACK 01 AUDIO
    TITLE "Daahoud"
    PERFORMER "Joe Albany & Warne Marsh"
    INDEX 01 00:00:00
  TRACK 02 AUDIO
    TITLE "Angel Eyes"
    PERFORMER "Joe Albany & Warne Marsh"
    INDEX 00 04:53:60
FILE "02 - Angel Eyes.wav" WAVE
    INDEX 01 00:00:00
  TRACK 03 AUDIO
    TITLE "I Love You"
    PERFORMER "Joe Albany & Warne Marsh"
    INDEX 00 06:07:13
FILE "03 - I Love You.wav" WAVE
    INDEX 01 00:00:00
  TRACK 04 AUDIO
    TITLE "Body and Soul"
    PERFORMER "Joe Albany & Warne Marsh"
    INDEX 00 08:30:57
FILE "04 - Body and Soul.wav" WAVE
    INDEX 01 00:00:00
  TRACK 05 AUDIO
    TITLE "It's You or No One"
    PERFORMER "Joe Albany & Warne Marsh"
    INDEX 00 08:22:20
FILE "05 - It's You or No One.wav" WAVE
    INDEX 01 00:00:00
  TRACK 06 AUDIO
    TITLE "All the Things You Are"
    PERFORMER "Joe Albany & Warne Marsh"
    INDEX 00 04:58:50
FILE "06 - All the Things You Are.wav" WAVE
    INDEX 01 00:00:00
  TRACK 07 AUDIO
    TITLE "The Nearness of You"
    PERFORMER "Joe Albany & Warne Marsh"
    INDEX 00 07:20:20
FILE "07 - The Nearness of You.wav" WAVE
    INDEX 01 00:00:00
Код: Выделить всё
[CUETools log; Date: 20.07.2018 1:00:28; Version: 2.1.5]
[CTDB TOCID: BzuvP6iUd4TyH9fE5GEPj38Pc_k-] found.
Track | CTDB Status
  1   | (5/5) Accurately ripped
  2   | (5/5) Accurately ripped
  3   | (5/5) Accurately ripped
  4   | (5/5) Accurately ripped
  5   | (5/5) Accurately ripped
  6   | (5/5) Accurately ripped
  7   | (5/5) Accurately ripped
[AccurateRip ID: 000c629c-004aaf77-710a0707] found.
Track   [  CRC   |   V2   ] Status
 01     [be8b1469|3b04e5a0] (0+1/3) Accurately ripped
 02     [db29156c|d3547f9e] (0+1/3) Accurately ripped
 03     [454441d1|d1901de6] (0+1/3) Accurately ripped
 04     [3d761991|3f0fb3b9] (0+1/3) Accurately ripped
 05     [4707c2f5|b17dc8aa] (0+1/3) Accurately ripped
 06     [7982fab6|2e12f236] (0+1/3) Accurately ripped
 07     [0a855942|3a10f2a0] (0+1/3) Accurately ripped
Offsetted by 318:
 01     [80f65126] (1/3) Accurately ripped
 02     [272362ed] (1/3) Accurately ripped
 03     [a61b2b0e] (1/3) Accurately ripped
 04     [ea369626] (1/3) Accurately ripped
 05     [0cf07297] (1/3) Accurately ripped
 06     [0fda2f1c] (1/3) Accurately ripped
 07     [c2bb3666] (1/3) Accurately ripped
Track Peak [ CRC32  ] [W/O NULL] [  LOG   ]
 --   70,9 [45DC7A31] [F65F9650]
 01   53,5 [86898507] [6E845696]   CRC32
 02   55,7 [6709142F] [682B2443]   CRC32
 03   70,9 [9DEFA2AB] [97079A79]   CRC32
 04   60,2 [63445366] [598336AD]   CRC32
 05   70,6 [1A62E641] [B079DCD3]   CRC32
 06   61,2 [F1F99A0A] [08740CF8]   CRC32
 07   29,7 [9088BC36] [E6D1C0B9]   CRC32
Although he was a pioneer of the bebop era and made a few isolated sides with Georgie Auld and Lester Young in 1945-1946, pianist Joe Albany can be heard on extremely few recordings before 1971. This CD reissue, which was actually a rehearsal, was Albany's only recorded date as a leader before the 1970s. The set of trios with tenor saxophonist Warne Marsh and bassist Bob Whitlock consists of seven jazz standards and, although not flawless, is of generally high quality. Marsh and Albany worked together quite well (their conceptions were similar), and these versions of such songs as Clifford Brown's "Daahoud," "Body and Soul," and "All the Things You Are" are quite rewarding. From the historical standpoint, this release is essential.
 
Не забывайте говорить Спасибо. Не уходите с раздачи!   
Торрент: Зарегистрирован [19 июл 2018, 22:04] Скачать торрент
Скачать торрент
[ Размер 12.59 КБ / Просмотров 13 ]
Статус:
Проверен
 
.torrent скачан: 0 раз
Хэш: 25e541e126036a4b91fb81fdc572523f1a206f6d
Размер: 145.25 МБ (152 303 435 байт)
Стать Автором раздачи
 
 
Раздал: 0 байт
Скачал: 0 байт
Ратио: Inf.
Сообщения: 487468
Зарегистрирован: 17 апр 2014, 13:57


  • Похожие торренты
    Ответы
    Просмотры
    Последнее сообщение

Вернуться в Bop (lossless)

Ресурс не предоставляет электронные версии произведений, а занимается лишь коллекционированием и каталогизацией ссылок, присылаемых и публикуемых на форуме нашими читателями. Если вы являетесь правообладателем какого-либо представленного материала и не желаете чтобы ссылка на него находилась в нашем каталоге, свяжитесь с нами и мы незамедлительно удалим её. Файлы для обмена на трекере предоставлены пользователями сайта, и администрация не несёт ответственности за их содержание. Просьба не заливать файлы, защищенные авторскими правами, а также файлы нелегального содержания!
cron