Перспектрум / Perspectrum (Иша Патель / Ishu Patel) [1975, Канада, авторская анимация, WEBRip]

 
 Статистика раздачи 
Размер: 82.16 МБ   |  Зарегистрирован: 19 июл 2018, 11:32   |   .torrent скачан: 0 раз
Сидеров: 1  [ 0 байт/сек ]     Личеров: 0  [ 0 байт/сек ]  
  

Перспектрум / Perspectrum (Иша Патель / Ishu Patel) [1975, Канада, авторская анимация, WEBRip]

Сообщение Nakazhu » 19 июл 2018, 14:40

Перспектрум / Perspectrum
Страна: Канада
Жанр: авторская анимация
Год выпуска: 1975
Продолжительность: 00:06:29
Перевод: не требуется
Субтитры: нет
Режиссёр: Иша Патель / Ishu Patel
Музыка: Мичио Мияги / Michio Miyagi
Описание: Переливаясь разными цветами спектра, квадраты под музыку выстраивают различные узоры.
Качество видео: WEBRip
Формат видео: AVI
Видео: 1569 kbps, 720х528 (4:3), 24.000 fps, MPEG-4 Visual (XviD)
Аудио: 192 kbps, 44.1 kHz, 2 channels, MPEG Audio (MP3)
Код: Выделить всё
General
Complete name                            : Perspectrum (1975).avi
Format                                   : AVI
Format/Info                              : Audio Video Interleave
File size                                : 82.2 MiB
Duration                                 : 6mn 29s
Overall bit rate                         : 1 770 Kbps
Writing library                          : VirtualDub build 35491/release
Video
ID                                       : 0
Format                                   : MPEG-4 Visual
Format profile                           : Advanced Simple@L4
Format settings, BVOP                    : 2
Format settings, QPel                    : No
Format settings, GMC                     : No warppoints
Format settings, Matrix                  : Default (H.263)
Codec ID                                 : XVID
Codec ID/Hint                            : XviD
Duration                                 : 6mn 29s
Bit rate                                 : 1 569 Kbps
Width                                    : 720 pixels
Height                                   : 528 pixels
Display aspect ratio                     : 4:3
Frame rate                               : 24.000 fps
Color space                              : YUV
Chroma subsampling                       : 4:2:0
Bit depth                                : 8 bits
Scan type                                : Progressive
Compression mode                         : Lossy
Bits/(Pixel*Frame)                       : 0.172
Stream size                              : 72.8 MiB (89%)
Writing library                          : XviD 64
Audio
ID                                       : 1
Format                                   : MPEG Audio
Format version                           : Version 1
Format profile                           : Layer 3
Mode                                     : Joint stereo
Codec ID                                 : 55
Codec ID/Hint                            : MP3
Duration                                 : 6mn 29s
Bit rate mode                            : Constant
Bit rate                                 : 192 Kbps
Channel(s)                               : 2 channels
Sampling rate                            : 44.1 KHz
Compression mode                         : Lossy
Stream size                              : 8.90 MiB (11%)
Alignment                                : Split accross interleaves
Interleave, duration                     : 42 ms (1.00 video frame)
Interleave, preload duration             : 500 ms
 
Не забывайте говорить Спасибо. Не уходите с раздачи!   
Торрент: Зарегистрирован [19 июл 2018, 11:32] Скачать торрент
Скачать торрент
[ Размер 13.39 КБ / Просмотров 4 ]
Статус:
Проверен
 
.torrent скачан: 0 раз
Хэш: 606acc670987397e2cd17f27739c77487916a3cc
Размер: 82.16 МБ (86 153 480 байт)
Стать Автором раздачи
 
 
Раздал: 0 байт
Скачал: 0 байт
Ратио: Inf.
Сообщения: 487468
Зарегистрирован: 17 апр 2014, 13:57


  • Похожие торренты
    Ответы
    Просмотры
    Последнее сообщение

Вернуться в Арт-хаус и авторское кино

Ресурс не предоставляет электронные версии произведений, а занимается лишь коллекционированием и каталогизацией ссылок, присылаемых и публикуемых на форуме нашими читателями. Если вы являетесь правообладателем какого-либо представленного материала и не желаете чтобы ссылка на него находилась в нашем каталоге, свяжитесь с нами и мы незамедлительно удалим её. Файлы для обмена на трекере предоставлены пользователями сайта, и администрация не несёт ответственности за их содержание. Просьба не заливать файлы, защищенные авторскими правами, а также файлы нелегального содержания!
cron