Школьная тетрадь (Сергей Ромашкин) [2011, Россия, авторская анимация, WEBRip]

 
 Статистика раздачи 
Размер: 49.72 МБ   |  Зарегистрирован: 18 июл 2018, 13:28   |   .torrent скачан: 0 раз
Сидеров: 1  [ 0 байт/сек ]     Личеров: 0  [ 0 байт/сек ]  
  

Школьная тетрадь (Сергей Ромашкин) [2011, Россия, авторская анимация, WEBRip]

Сообщение Nakazhu » 18 июл 2018, 16:41

Школьная тетрадь
Страна: Россия
Жанр: авторская анимация
Год выпуска: 2011
Продолжительность: 00:06:59
Перевод: не требуется
Субтитры: нет
Режиссёр: Сергей Ромашкин
Композитор: Георг Лукин
Описание: Фильм, посвященный памяти режиссёра Александра Федулова, основан на рисунках из его тетради.
Качество видео: WEBRip
Формат видео: AVI
Видео: 853 kbps, 592х432 (1.370), 25.000 fps, MPEG-4 Visual (XviD)
Аудио: 128 kbps, 44.1 kHz, 2 channels, MPEG Audio (MP3)
Код: Выделить всё
General
Complete name                            : Школьная тетрадь (2011).avi
Format                                   : AVI
Format/Info                              : Audio Video Interleave
File size                                : 49.7 MiB
Duration                                 : 6mn 59s
Overall bit rate                         : 993 Kbps
Writing application                      : Lavf55.19.104
Video
ID                                       : 0
Format                                   : MPEG-4 Visual
Format profile                           : Advanced Simple@L4
Format settings, BVOP                    : 2
Format settings, QPel                    : No
Format settings, GMC                     : No warppoints
Format settings, Matrix                  : Default (H.263)
Codec ID                                 : XVID
Codec ID/Hint                            : XviD
Duration                                 : 6mn 59s
Bit rate                                 : 853 Kbps
Width                                    : 592 pixels
Height                                   : 432 pixels
Display aspect ratio                     : 1.370
Frame rate                               : 25.000 fps
Color space                              : YUV
Chroma subsampling                       : 4:2:0
Bit depth                                : 8 bits
Scan type                                : Progressive
Compression mode                         : Lossy
Bits/(Pixel*Frame)                       : 0.133
Stream size                              : 42.7 MiB (86%)
Writing library                          : XviD 73
Audio
ID                                       : 1
Format                                   : MPEG Audio
Format version                           : Version 1
Format profile                           : Layer 3
Mode                                     : Joint stereo
Mode extension                           : MS Stereo
Codec ID                                 : 55
Codec ID/Hint                            : MP3
Duration                                 : 6mn 59s
Bit rate mode                            : Constant
Bit rate                                 : 128 Kbps
Channel(s)                               : 2 channels
Sampling rate                            : 44.1 KHz
Compression mode                         : Lossy
Stream size                              : 6.41 MiB (13%)
Alignment                                : Aligned on interleaves
Interleave, duration                     : 26 ms (0.65 video frame)
 
Не забывайте говорить Спасибо. Не уходите с раздачи!   
Торрент: Зарегистрирован [18 июл 2018, 13:28] Скачать торрент
Скачать торрент
[ Размер 16.11 КБ / Просмотров 4 ]
Статус:
Проверен
 
.torrent скачан: 0 раз
Хэш: 2df2cfcc145cfcc5edaf2efa5a7f2407fdf294ab
Размер: 49.72 МБ (52 136 740 байт)
Стать Автором раздачи
 
 
Раздал: 0 байт
Скачал: 0 байт
Ратио: Inf.
Сообщения: 487468
Зарегистрирован: 17 апр 2014, 13:57


  • Похожие торренты
    Ответы
    Просмотры
    Последнее сообщение

Вернуться в Арт-хаус и авторское кино

Ресурс не предоставляет электронные версии произведений, а занимается лишь коллекционированием и каталогизацией ссылок, присылаемых и публикуемых на форуме нашими читателями. Если вы являетесь правообладателем какого-либо представленного материала и не желаете чтобы ссылка на него находилась в нашем каталоге, свяжитесь с нами и мы незамедлительно удалим её. Файлы для обмена на трекере предоставлены пользователями сайта, и администрация не несёт ответственности за их содержание. Просьба не заливать файлы, защищенные авторскими правами, а также файлы нелегального содержания!
cron