(Synthpop) [WEB] Logic+Olivia - Louder Than Words - 2018, FLAC (tracks), lossless

 
 Статистика раздачи 
Размер: 337.62 МБ   |  Зарегистрирован: 18 июл 2018, 08:36   |   .torrent скачан: 0 раз
Сидеров: 1  [ 0 байт/сек ]     Личеров: 0  [ 0 байт/сек ]  
  

(Synthpop) [WEB] Logic+Olivia - Louder Than Words - 2018, FLAC (tracks), lossless

Сообщение Nakazhu » 18 июл 2018, 11:47

Logic+Olivia - Louder Than Words





• Жанр: Synthpop
• Носитель: WEB
• Год издания: 2018
• Издатель (лейбл) Infacted Recordings
• Страна исполнителя (группы): Germany
• Аудиокодек: FLAC (*.flac)
• Тип рипа: tracks
• Продолжительность: 00:49:52
• Источник (релизер): NTDMMANIAC ®
• WEB релиз: bandcamp
• Наличие сканов: front

01 - Frei und gemeinsam (00:04:46)
02 - Night of Despair (00:04:39)
03 - Don't Walk Away (00:05:27)
04 - Soldier (00:06:25)
05 - A Point of View (00:04:19)
06 - Run (00:04:44)
07 - I Am the Storm (00:04:04)
08 - I Like (00:04:41)
09 - Now and Always (00:04:37)
10 - The Secret (00:06:04)

foobar2000 1.2.5 / Замер динамического диапазона (DR) 1.1.1
Дата отчёта: 2018-07-17 21:48:55
--------------------------------------------------------------------------------
Анализ: Logic & Olivia / Louder Than Words
--------------------------------------------------------------------------------
DR Пики RMS Продолжительность трека
--------------------------------------------------------------------------------
DR8 0.00 дБ -10.74 дБ 4:47 01-Frei und gemeinsam
DR8 0.00 дБ -9.31 дБ 4:40 02-Night of Despair
DR9 0.00 дБ -10.40 дБ 5:27 03-Don't Walk Away
DR10 0.00 дБ -12.14 дБ 6:26 04-Soldier
DR10 0.00 дБ -11.65 дБ 4:20 05-A Point of View
DR9 0.00 дБ -10.98 дБ 4:44 06-Run
DR8 0.00 дБ -9.69 дБ 4:05 07-I Am the Storm
DR9 0.00 дБ -11.17 дБ 4:42 08-I Like
DR9 0.00 дБ -11.28 дБ 4:38 09-Now and Always
DR10 0.00 дБ -11.06 дБ 6:04 10-The Secret
--------------------------------------------------------------------------------
Количество треков: 10
Реальные значения DR: DR9
Частота: 44100 Гц
Каналов: 2
Разрядность: 16
Битрейт: 909 кбит/с
Кодек: FLAC
================================================================================

Код: Выделить всё
-----------------------
DON'T MODIFY THIS FILE
-----------------------
PERFORMER: auCDtect Task Manager, ver. 1.6.0 RC1 build 1.6.0.1
Copyright (c) 2008-2010 y-soft. All rights reserved
[url=http://y-soft.org]http://y-soft.org[/url]
ANALYZER: auCDtect: CD records authenticity detector, version 0.8.2
Copyright (c) 2004 Oleg Berngardt. All rights reserved.
Copyright (c) 2004 Alexander Djourik. All rights reserved.
FILE: 10 - The Secret.flac
  Size: 41690217 Hash: 87D3B8B49C999442A7DF6B6CF83BEEE9 Accuracy: -m0
  Conclusion: CDDA 100%
  Signature: ED2D9BA6749568DED3FEABE466575919B7C09A5C
FILE: 09 - Now and Always.flac
  Size: 33513155 Hash: 3E022FEC64D087761DA8CE5DDBB48A45 Accuracy: -m0
  Conclusion: CDDA 100%
  Signature: F18377C833C3CB243C22FAABA5BA057F08A38519
FILE: 08 - I Like.flac
  Size: 33488054 Hash: C8CA78AC082A2D65731765B7535BE906 Accuracy: -m0
  Conclusion: CDDA 100%
  Signature: 1F03B2015F11350AEAE0F2C4127F46854947EE12
FILE: 07 - I Am the Storm.flac
  Size: 27036175 Hash: 5B1A485626BFA079788B951520525728 Accuracy: -m0
  Conclusion: CDDA 100%
  Signature: 94A89773750539C037264C56EFA4FAF76EA7ABEE
FILE: 06 - Run.flac
  Size: 35849692 Hash: 1079EB8625B5FC5F7521A7A4F1F21BFF Accuracy: -m0
  Conclusion: CDDA 100%
  Signature: 3EC934029853F482B66858FCD55C60B3D2427C52
FILE: 05 - A Point of View.flac
  Size: 29337820 Hash: 14559596CE205D8E045F1D88A0F09F82 Accuracy: -m0
  Conclusion: CDDA 100%
  Signature: 0517AFB0D471C4C2D2AEC0F75C67DA2BD2C729F2
FILE: 04 - Soldier.flac
  Size: 44229254 Hash: 928A0CE5062DA890D312BD19EAE1FA21 Accuracy: -m0
  Conclusion: CDDA 100%
  Signature: E15DA2C85D4F524CA30AEF0D449900D4185674B3
FILE: 03 - Don't Walk Away.flac
  Size: 41335397 Hash: 97168DAB2A50D48773A096D275ED79EA Accuracy: -m0
  Conclusion: CDDA 100%
  Signature: 92C5A1116086B20A35DA97014FD1B4405BF1786B
FILE: 02 - Night of Despair.flac
  Size: 34045670 Hash: 7F70ABE3444DE600EA2EE71D8AEF150C Accuracy: -m0
  Conclusion: CDDA 100%
  Signature: B9C186B5FF400E4E54BBF052AC1E869C06FDC634
FILE: 01 - Frei und gemeinsam.flac
  Size: 33191703 Hash: 0D64B312ABA8E29A1015CCB826DCB762 Accuracy: -m0
  Conclusion: CDDA 100%
  Signature: 2BFDE01CE6C481DA5B5A59E7FF30BA1A21758B9A



 
Не забывайте говорить Спасибо. Не уходите с раздачи!   
Торрент: Зарегистрирован [18 июл 2018, 08:36] Скачать торрент
Скачать торрент
[ Размер 14.21 КБ / Просмотров 8 ]
Статус:
Проверен
 
.torrent скачан: 0 раз
Хэш: dc22d2c470d6c36c9cc00c317c67d25c460c7b63
Размер: 337.62 МБ (354 015 699 байт)
Стать Автором раздачи
 
 
Раздал: 0 байт
Скачал: 0 байт
Ратио: Inf.
Сообщения: 487468
Зарегистрирован: 17 апр 2014, 13:57


  • Похожие торренты
    Ответы
    Просмотры
    Последнее сообщение

Вернуться в Synthpop, New Wave (lossless)

Ресурс не предоставляет электронные версии произведений, а занимается лишь коллекционированием и каталогизацией ссылок, присылаемых и публикуемых на форуме нашими читателями. Если вы являетесь правообладателем какого-либо представленного материала и не желаете чтобы ссылка на него находилась в нашем каталоге, свяжитесь с нами и мы незамедлительно удалим её. Файлы для обмена на трекере предоставлены пользователями сайта, и администрация не несёт ответственности за их содержание. Просьба не заливать файлы, защищенные авторскими правами, а также файлы нелегального содержания!
cron