Психи (Алексей Китайцев) [2015, боевик, драма, WEB-DLRip]

 
 Статистика раздачи 
Размер: 1.46 ГБ   |  Зарегистрирован: 17 июл 2018, 10:21   |   .torrent скачан: 0 раз
Сидеров: 1  [ 0 байт/сек ]     Личеров: 0  [ 0 байт/сек ]  
  

Психи (Алексей Китайцев) [2015, боевик, драма, WEB-DLRip]

Сообщение Nakazhu » 17 июл 2018, 13:32

Психи
Жанр: боевик, драма
Год выпуска: 2015
Продолжительность: 01:34:14
Режиссёр: Алексей Китайцев
В ролях: Илья Антоненко, Матвей Зубалевич, Кристина Асмус, Егор Харламов, Даниил Вахрушев, Ростислав Бершауэр, Юрий Маслак, Егор Тимцуник, Вероника Вернадская, Сергей Неудачин

Описание: Обычная неформальная тусовка, но как быстро она может окраситься в коричневый цвет идей национал-социализма… От шуток про чернокожих до настоящего убийства — один шаг. Этот фильм про ответственность за свой выбор. Когда ты молод, ты с легкостью вешаешь на себя любой ярлык. Тебе нет разницы — назовут тебя фашистом или антифашистом, лишь бы перед друзьями выглядеть круто. Но расплата за ошибочный выбор — самая настоящая.
Кинопоиск
Sample
Качество видео: WEB-DLRip
Формат видео: AVI
Видео: 720x384 (1.88:1), 24.000 fps, XviD build 73 ~2017 kbps avg, 0.30 bit/pixel
Аудио: 48 kHz, AC3 Dolby Digital, 2/0 (L,R) ch, ~192 kbps
General
Complete name : D:\Психи 2015 WEB-DLRip.avi
Format : AVI
Format/Info : Audio Video Interleave
File size : 1.46 GiB
Duration : 1 h 34 min
Overall bit rate : 2 219 kb/s
Writing application : VirtualDubMod 1.5.10.3 | www.virtualdub-fr.org || (build 2550/release)
Writing library : VirtualDubMod build 2550/release
Video
ID : 0
Format : MPEG-4 Visual
Format profile : Advanced Simple@L5
Format settings : BVOP1
Format settings, BVOP : 1
Format settings, QPel : No
Format settings, GMC : No warppoints
Format settings, Matrix : Default (MPEG)
Codec ID : XVID
Codec ID/Hint : XviD
Duration : 1 h 34 min
Bit rate : 2 018 kb/s
Width : 720 pixels
Height : 384 pixels
Display aspect ratio : 1.85:1
Frame rate : 24.000 FPS
Color space : YUV
Chroma subsampling : 4:2:0
Bit depth : 8 bits
Scan type : Progressive
Compression mode : Lossy
Bits/(Pixel*Frame) : 0.304
Stream size : 1.33 GiB (91%)
Writing library : XviD 73
Audio
ID : 1
Format : AC-3
Format/Info : Audio Coding 3
Codec ID : 2000
Duration : 1 h 34 min
Bit rate mode : Constant
Bit rate : 192 kb/s
Channel(s) : 2 channels
Channel positions : Front: L R
Sampling rate : 48.0 kHz
Frame rate : 31.250 FPS (1536 SPF)
Bit depth : 16 bits
Compression mode : Lossy
Stream size : 129 MiB (9%)
Alignment : Split accross interleaves
Interleave, duration : 42 ms (1.00 video frame)
Interleave, preload duratio : 500 ms
Service kind : Complete Main


 
Не забывайте говорить Спасибо. Не уходите с раздачи!   
Торрент: Зарегистрирован [17 июл 2018, 10:21] Для скачивания .torrent
необходима регистрация
Или скачать с помощью
MediaGet
Статус:
Проверен
 
.torrent скачан: 0 раз
Хэш: edf1a7939c2f7458d325061c3be3a55c57af5791
Размер: 1.46 ГБ (1 568 698 368 байт)
Стать Автором раздачи
 
 
Раздал: 0 байт
Скачал: 0 байт
Ратио: Inf.
Сообщения: 487468
Зарегистрирован: 17 апр 2014, 13:57


  • Похожие торренты
    Ответы
    Просмотры
    Последнее сообщение

Вернуться в Отечественные фильмы 2011 - 2015 года

Ресурс не предоставляет электронные версии произведений, а занимается лишь коллекционированием и каталогизацией ссылок, присылаемых и публикуемых на форуме нашими читателями. Если вы являетесь правообладателем какого-либо представленного материала и не желаете чтобы ссылка на него находилась в нашем каталоге, свяжитесь с нами и мы незамедлительно удалим её. Файлы для обмена на трекере предоставлены пользователями сайта, и администрация не несёт ответственности за их содержание. Просьба не заливать файлы, защищенные авторскими правами, а также файлы нелегального содержания!
cron