Любовь больше, чем любовь / So Goes My Love / Ai yori ai e (Ясудзиро Симадзу / Yasujiro Shimazu) [1938, Япония, мелодрама, DVDRip] + Sub Rus Eng+ Original Jpn

 
 Статистика раздачи 
Размер: 1.08 ГБ   |  Зарегистрирован: 16 июл 2018, 07:40   |   .torrent скачан: 0 раз
Сидеров: 1  [ 0 байт/сек ]     Личеров: 0  [ 0 байт/сек ]  
  

Любовь больше, чем любовь / So Goes My Love / Ai yori ai e (Ясудзиро Симадзу / Yasujiro Shimazu) [1938, Япония, мелодрама, DVDRip] + Sub Rus Eng+ Original Jpn

Сообщение Nakazhu » 16 июл 2018, 10:56

Любовь больше, чем любовь / So Goes My Love / Ai yori ai e / 愛より愛へ
Страна: Япония
Жанр: мелодрама
Год выпуска: 1938
Продолжительность: 00:56:57
Перевод 1: Субтитры русские - дед_сто_лет©
Перевод 2: Субтитры английские - хардсаб.
Оригинальная аудиодорожка: японский
Режиссер: Ясудзиро Симадзу / Yasujiro Shimazu
Сценарий: Хидэо ОБА
Монтаж: Кодзабуро ЁСИМУРА
В ролях: Сюдзи САНО, Санаэ ТАКАСУГИ, Миэко ТАКАМИНЭ, Рётаро МИДЗУСИМА, Рэйкити КАВАМУРА
Описание: Сигэо Таникава вынужден был уйти из родного дома, поскольку его состоятельные родители не хотят признать его связь с Мияко, девушкой из бара. Но без поддержки состоятельных родственников трудно найти работу, и практически невозможно содержать семью. Сестра Тосико хотела бы помочь брату, но она ничего не может сделать без согласия отца. В фильме можно увидеть кадры из "Олимпии" Лени Рифеншталь.©
Ясудзиро Симадзу (1897 — 1945) не дожил до 50 лет, но оставил заметный вклвд в японском кинематографе. Многие известные режиссеры получили первый опыт, работая с ним.
Фильмы очень сходной тематики в те же годы снимал Хэйноскэ Госё:
Новый путь / The New Road / Shindo / 新道 - 1936
Женщина под покровом ночи / Woman of the Mist / Oboroyo no onna / 朧夜の女 - 1936
> > > > > > > > >
Качество видео: DVDRip
Формат видео: AVI
Видео: 640x480 (1.33:1), 29.970 fps, XviD build 50 ~2503 kbps avg, 0.27 bit/pixel
Аудио: 48 kHz, MPEG Layer 3, 2 ch, ~192.00 kbps avg
Формат субтитров: softsub (ASS)
Доп. информация о субтитрах: дед_сто_лет
440
00:28:27,760 --> 00:28:28,880
Ну и выдадим.
441
00:28:28,980 --> 00:28:33,180
Ты так говоришь, но нельзя так с Сигэо.
442
00:28:34,260 --> 00:28:36,270
Даже, если Тосико выйдет замуж...
443
00:28:37,590 --> 00:28:39,290
... что потом будет с нами?
444
00:28:40,430 --> 00:28:42,570
Ничего не будет. Так оно лучше.
445
00:28:42,670 --> 00:28:46,790
Тебе, может, лучше, а я так страдаю.
446
00:28:47,700 --> 00:28:50,460
Делай, как хочешь. Отстань от меня!
447
00:28:54,620 --> 00:28:57,230
Что ты собираешься делать?
448
00:28:58,610 --> 00:29:00,500
Если хочешь, можешь идти к Сигэо!
449
00:29:01,440 --> 00:29:02,690
Я обойдусь один.
450
00:29:03,620 --> 00:29:04,620
Что за глупости.
451
00:29:04,980 --> 00:29:06,990
Глупости? Это ты говоришь глупости!
452
00:29:32,670 --> 00:29:34,930
Настал сезон самоубийств.
453
00:29:35,030 --> 00:29:36,570
Это всё из-за жары.
454
00:29:38,000 --> 00:29:39,460
Всё летит в тартарары.
455
00:29:41,660 --> 00:29:42,940
Уходите?
456
00:29:43,700 --> 00:29:46,020
Ваша жена ещё не пришла?
457
00:29:46,120 --> 00:29:47,120
Нет.
458
00:29:49,690 --> 00:29:50,920
Должна скоро прийти.
459
00:30:00,650 --> 00:30:03,160
А вот и нет. Она ушла от него.
460
00:30:03,260 --> 00:30:04,850
- Ушла от него?
- Да.
Код: Выделить всё
General
Complete name                    : C:\Torrents\[ASIA]\Ai.yori.ai.e(1938)Yasujiro.Shimazu\Ai.yori.ai.e(1938)Yasujiro.Shimazu.avi
Format                           : AVI
Format/Info                      : Audio Video Interleave
File size                        : 1.08 GiB
Duration                         : 56mn 57s
Overall bit rate                 : 2 707 Kbps
Video
ID                               : 0
Format                           : MPEG-4 Visual
Format profile                   : Advanced Simple@L5
Format settings, BVOP            : No
Format settings, QPel            : No
Format settings, GMC             : No warppoints
Format settings, Matrix          : Custom
Codec ID                         : XVID
Codec ID/Hint                    : XviD
Duration                         : 56mn 57s
Bit rate                         : 2 504 Kbps
Width                            : 640 pixels
Height                           : 480 pixels
Display aspect ratio             : 4:3
Frame rate                       : 29.970 fps
Color space                      : YUV
Chroma subsampling               : 4:2:0
Bit depth                        : 8 bits
Scan type                        : Progressive
Compression mode                 : Lossy
Bits/(Pixel*Frame)               : 0.272
Stream size                      : 1 020 MiB (92%)
Writing library                  : XviD 1.2.1 (UTC 2008-12-04)
Audio
ID                               : 1
Format                           : MPEG Audio
Format version                   : Version 1
Format profile                   : Layer 3
Mode                             : Joint stereo
Mode extension                   : MS Stereo
Codec ID                         : 55
Codec ID/Hint                    : MP3
Duration                         : 56mn 57s
Bit rate mode                    : Constant
Bit rate                         : 192 Kbps
Channel(s)                       : 2 channels
Sampling rate                    : 48.0 KHz
Compression mode                 : Lossy
Stream size                      : 78.2 MiB (7%)
Alignment                        : Aligned on interleaves
Interleave, duration             : 33 ms (1.00 video frame)
Writing library                  : LAME
 
Не забывайте говорить Спасибо. Не уходите с раздачи!   
Торрент: Зарегистрирован [16 июл 2018, 07:40] Скачать торрент
Скачать торрент
[ Размер 11.35 КБ / Просмотров 3 ]
Статус:
Проверен
 
.torrent скачан: 0 раз
Хэш: 1d4bbf482637b74843cd9a5041279158da0a9228
Размер: 1.08 ГБ (1 156 779 274 байт)
Стать Автором раздачи
 
 
Раздал: 0 байт
Скачал: 0 байт
Ратио: Inf.
Сообщения: 487468
Зарегистрирован: 17 апр 2014, 13:57


  • Похожие торренты
    Ответы
    Просмотры
    Последнее сообщение

Вернуться в Зарубежное кино

Ресурс не предоставляет электронные версии произведений, а занимается лишь коллекционированием и каталогизацией ссылок, присылаемых и публикуемых на форуме нашими читателями. Если вы являетесь правообладателем какого-либо представленного материала и не желаете чтобы ссылка на него находилась в нашем каталоге, свяжитесь с нами и мы незамедлительно удалим её. Файлы для обмена на трекере предоставлены пользователями сайта, и администрация не несёт ответственности за их содержание. Просьба не заливать файлы, защищенные авторскими правами, а также файлы нелегального содержания!
cron