Невеста Христова. Преподобная Манефа Гомельская (Инесса Шевцова) [2008, торжество Православия, DVDRip]

 
 Статистика раздачи 
Размер: 599.04 МБ   |  Зарегистрирован: 15 июл 2018, 19:15   |   .torrent скачан: 0 раз
Сидеров: 1  [ 0 байт/сек ]     Личеров: 0  [ 0 байт/сек ]  
  

Невеста Христова. Преподобная Манефа Гомельская (Инесса Шевцова) [2008, торжество Православия, DVDRip]

Сообщение Nakazhu » 15 июл 2018, 22:33

Невеста Христова. Преподобная Манефа Гомельская
Дата/Год выпуска: 2008
Страна
: Россия
Жанр: торжество Православия
Продолжительность: 00:54:23
Перевод: Не требуется
Русские субтитры: нет
Оригинальная аудиодорожка: русский
Режиссер: Инесса Шевцова
Описание: 1-го апреля 1918 года в деревне Севруки под Гомелем в семье крестьян Скопичевых родилась девочка. При крещении ее нарекли Марией в честь пустынницы Марии Египетской. Однако вскоре радость, связанная с рождением ребенка, омрачилась: врачи вынесли приговор - девочка никогда не будет ходить. Надежды на избавление от тяжелого недуга не было... Таким трагичным было начало жизненного пути святой земли белорусской преподобной Манефы.
Вера в Бога и Его милосердие способна изменить всю жизнь человека, только бы человек сам этого захотел. Блажен, кто пребывает в Боге, кого Он избрал и приблизил, зримо свидетельствуя о том, как "сила Божия в немощи совершается". Через таких людей спасалась земля наша, да и по сей день по их молитвам еще держится. Через схимонахиню Манефу Бог открывает нам еще одно окно в духовный мир.
качество: DVDRip
формат: AVI
Видео: MPEG4, XviD, 720x544 (4:3), 25.000 fps, 1 343 Kbps (0.137 bit/pixel)
Аудио: AC-3, 48.0 KHz, 2 ch, 192 Kbps, CBR
Код: Выделить всё
General
Complete name                            : C:\Users\User\Downloads\Невеста Христова. Преподобная Манефа Гомельская.avi
Format                                   : AVI
Format/Info                              : Audio Video Interleave
File size                                : 599 MiB
Duration                                 : 54mn 22s
Overall bit rate                         : 1 540 Kbps
Video
ID                                       : 0
Format                                   : MPEG-4 Visual
Format profile                           : Advanced Simple@L5
Format settings, BVOP                    : 1
Format settings, QPel                    : No
Format settings, GMC                     : No warppoints
Format settings, Matrix                  : Default (H.263)
Codec ID                                 : XVID
Codec ID/Hint                            : XviD
Duration                                 : 54mn 22s
Bit rate                                 : 1 343 Kbps
Width                                    : 720 pixels
Height                                   : 544 pixels
Display aspect ratio                     : 4:3
Frame rate                               : 25.000 fps
Color space                              : YUV
Chroma subsampling                       : 4:2:0
Bit depth                                : 8 bits
Scan type                                : Progressive
Compression mode                         : Lossy
Bits/(Pixel*Frame)                       : 0.137
Stream size                              : 522 MiB (87%)
Writing library                          : XviD 63
Audio
ID                                       : 1
Format                                   : AC-3
Format/Info                              : Audio Coding 3
Mode extension                           : CM (complete main)
Format settings, Endianness              : Big
Codec ID                                 : 2000
Duration                                 : 54mn 22s
Bit rate mode                            : Constant
Bit rate                                 : 192 Kbps
Channel(s)                               : 2 channels
Channel positions                        : Front: L R
Sampling rate                            : 48.0 KHz
Bit depth                                : 16 bits
Compression mode                         : Lossy
Delay relative to video                  : 40ms
Stream size                              : 74.7 MiB (12%)
Alignment                                : Split accross interleaves
Interleave, duration                     : 500 ms (12.50 video frames)
Interleave, preload duration             : 500 ms
 
Не забывайте говорить Спасибо. Не уходите с раздачи!   
Торрент: Зарегистрирован [15 июл 2018, 19:15] Скачать торрент
Скачать торрент
[ Размер 12.22 КБ / Просмотров 1 ]
Статус:
Проверен
 
.torrent скачан: 0 раз
Хэш: 4205117db2ce4a6b5e5347e8a83fca3294900c3c
Размер: 599.04 МБ (628 142 600 байт)
Стать Автором раздачи
 
 
Раздал: 0 байт
Скачал: 0 байт
Ратио: Inf.
Сообщения: 487468
Зарегистрирован: 17 апр 2014, 13:57


  • Похожие торренты
    Ответы
    Просмотры
    Последнее сообщение

Вернуться в Вера и религия (видео)

Ресурс не предоставляет электронные версии произведений, а занимается лишь коллекционированием и каталогизацией ссылок, присылаемых и публикуемых на форуме нашими читателями. Если вы являетесь правообладателем какого-либо представленного материала и не желаете чтобы ссылка на него находилась в нашем каталоге, свяжитесь с нами и мы незамедлительно удалим её. Файлы для обмена на трекере предоставлены пользователями сайта, и администрация не несёт ответственности за их содержание. Просьба не заливать файлы, защищенные авторскими правами, а также файлы нелегального содержания!
cron