Диадема старца [2018, торжество Православия, WEBRip]

 
 Статистика раздачи 
Размер: 495.08 МБ   |  Зарегистрирован: 15 июл 2018, 18:51   |   .torrent скачан: 0 раз
Сидеров: 1  [ 0 байт/сек ]     Личеров: 0  [ 0 байт/сек ]  
  

Диадема старца [2018, торжество Православия, WEBRip]

Сообщение Nakazhu » 15 июл 2018, 22:03

Диадема старца
Дата/Год выпуска: 2018
Страна
: Грузия
Жанр: торжество Православия
Продолжительность: 00:51:28
Перевод: Не требуется
Русские субтитры: нет
Оригинальная аудиодорожка: русский
Описание: Фильм о святом нашего времени архимандрите Гаврииле (Ургебадзе)
качество: WEBRip
формат: MP4
Видео: AVC, 1920x1080 (16:9), 25.000 fps, 1 213 Kbps (0.023 bit/pixel)
Аудио: AAC LC, 44.1 KHz, 2 ch, 126 Kbps, CBR
Код: Выделить всё
General
Complete name                            : C:\Users\User\Downloads\Диадема старца.mp4
Format                                   : MPEG-4
Format profile                           : Base Media
Codec ID                                 : isom
File size                                : 495 MiB
Duration                                 : 51mn 28s
Overall bit rate                         : 1 345 Kbps
Writing application                      : Lavf57.2.100
Video
ID                                       : 1
Format                                   : AVC
Format/Info                              : Advanced Video Codec
Format profile                           : High@L4.0
Format settings, CABAC                   : Yes
Format settings, ReFrames                : 3 frames
Codec ID                                 : avc1
Codec ID/Info                            : Advanced Video Coding
Duration                                 : 51mn 28s
Bit rate                                 : 1 213 Kbps
Width                                    : 1 920 pixels
Height                                   : 1 080 pixels
Display aspect ratio                     : 16:9
Frame rate mode                          : Constant
Frame rate                               : 25.000 fps
Color space                              : YUV
Chroma subsampling                       : 4:2:0
Bit depth                                : 8 bits
Scan type                                : Progressive
Bits/(Pixel*Frame)                       : 0.023
Stream size                              : 447 MiB (90%)
Color primaries                          : BT.709
Transfer characteristics                 : BT.709
Matrix coefficients                      : BT.709
Audio
ID                                       : 2
Format                                   : AAC
Format/Info                              : Advanced Audio Codec
Format profile                           : LC
Codec ID                                 : 40
Duration                                 : 51mn 28s
Bit rate mode                            : Constant
Bit rate                                 : 126 Kbps
Channel(s)                               : 2 channels
Channel positions                        : Front: L R
Sampling rate                            : 44.1 KHz
Compression mode                         : Lossy
Stream size                              : 46.2 MiB (9%)
 
Не забывайте говорить Спасибо. Не уходите с раздачи!   
Торрент: Зарегистрирован [15 июл 2018, 18:51] Скачать торрент
Скачать торрент
[ Размер 19.8 КБ / Просмотров 1 ]
Статус:
Проверен
 
.torrent скачан: 0 раз
Хэш: e71888f8f8a6f7984d9fa81a52fdca782fc1c850
Размер: 495.08 МБ (519 130 071 байт)
Стать Автором раздачи
 
 
Раздал: 0 байт
Скачал: 0 байт
Ратио: Inf.
Сообщения: 487468
Зарегистрирован: 17 апр 2014, 13:57


  • Похожие торренты
    Ответы
    Просмотры
    Последнее сообщение

Вернуться в Вера и религия (видео)

Ресурс не предоставляет электронные версии произведений, а занимается лишь коллекционированием и каталогизацией ссылок, присылаемых и публикуемых на форуме нашими читателями. Если вы являетесь правообладателем какого-либо представленного материала и не желаете чтобы ссылка на него находилась в нашем каталоге, свяжитесь с нами и мы незамедлительно удалим её. Файлы для обмена на трекере предоставлены пользователями сайта, и администрация не несёт ответственности за их содержание. Просьба не заливать файлы, защищенные авторскими правами, а также файлы нелегального содержания!
cron