Совсем не простая история (Фёдор Попов) [2013, драма, WEB-DLRip-AVC]

 
 Статистика раздачи 
Размер: 2.18 ГБ   |  Зарегистрирован: 14 июл 2018, 18:08   |   .torrent скачан: 0 раз
Сидеров: 1  [ 0 байт/сек ]     Личеров: 0  [ 0 байт/сек ]  
  

Совсем не простая история (Фёдор Попов) [2013, драма, WEB-DLRip-AVC]

Сообщение Nakazhu » 14 июл 2018, 21:16

Совсем не простая история
Жанр: драма
Год выпуска: 2013
Продолжительность: 01:53:30
Режиссёр: Фёдор Попов
В ролях:
Даниил Спиваковский, Алексей Ионов, Егор Баринов, Юлия Йенч, Евгения Крегжде, Дмитрий Калистратов, Анастасия Привалова, Виталий Отинов, Милена Давыдова, Роман Сеньков
Описание:
Жизненные пути двух людей, взрослого человека и подростка, пересекаются в тот момент, когда оба они стоят на краю жизни. Подросток случайно спасает жизнь взрослого. Взрослый видит, что парень, спасший его, почти след в след шагает по той же тропинке, которая его самого чуть не привела к гибели…
Сэмпл | Кинопоиск
Качество видео: WEB-DLRip-AVC
Формат видео: MKV
Видео: x264: (High@L4.1); 1056x472, Display aspect ratio 2.237:1, 24.000 fps, 2364 Kbps
Аудио: AC-3; 16 bits 48 Khz; 5.1ch 384 Kbps; CBR
avs [info]: 1056x472p 1:1 @ 24/1 fps (cfr)
x264 [info]: using SAR=1/1
x264 [info]: using cpu capabilities: MMX2 SSE2Fast SSSE3 SSE4.2
x264 [info]: profile High, level 4.1
x264 [info]: frame I:1205 Avg QP:18.11 size: 75122
x264 [info]: frame P:37249 Avg QP:20.52 size: 24936
x264 [info]: frame B:125009 Avg QP:22.24 size: 7948
x264 [info]: consecutive B-frames: 1.4% 2.4% 4.3% 47.5% 14.4% 24.8% 1.5% 2.7% 0.3% 0.4% 0.4% 0.1%
x264 [info]: mb I I16..4: 5.1% 73.3% 21.6%
x264 [info]: mb P I16..4: 0.2% 8.7% 1.1% P16..4: 33.0% 39.3% 15.5% 0.0% 0.0% skip: 2.3%
x264 [info]: mb B I16..4: 0.0% 0.8% 0.1% B16..8: 32.7% 19.2% 3.5% direct: 7.5% skip:36.2% L0:39.5% L1:43.5% BI:16.9%
x264 [info]: 8x8 transform intra:84.1% inter:54.5%
x264 [info]: direct mvs spatial:97.9% temporal:2.1%
x264 [info]: coded y,uvDC,uvAC intra: 96.1% 88.1% 65.7% inter: 29.7% 19.4% 8.9%
x264 [info]: i16 v,h,dc,p: 16% 16% 10% 58%
x264 [info]: i8 v,h,dc,ddl,ddr,vr,hd,vl,hu: 14% 9% 6% 9% 12% 12% 12% 12% 13%
x264 [info]: i4 v,h,dc,ddl,ddr,vr,hd,vl,hu: 16% 10% 3% 8% 13% 13% 13% 11% 12%
x264 [info]: i8c dc,h,v,p: 41% 22% 20% 17%
x264 [info]: Weighted P-Frames: Y:1.2% UV:0.3%
x264 [info]: ref P L0: 45.2% 10.7% 19.4% 5.3% 5.0% 2.9% 3.0% 1.3% 1.4% 1.0% 1.1% 0.8% 0.9% 0.7% 0.8% 0.5%
x264 [info]: ref B L0: 75.9% 10.7% 4.5% 2.3% 1.5% 1.2% 1.0% 0.6% 0.5% 0.4% 0.4% 0.3% 0.3% 0.2% 0.1%
x264 [info]: ref B L1: 95.6% 4.4%
x264 [info]: kb/s:2364.28

General
Unique ID : 189487489728163298238030203228382651167 (0x8E8DF68ACCDDA8129DB5ACD36309631F)
Complete name : Совсем не простая история.mkv
Format : Matroska
Format version : Version 2
File size : 2.18 GiB
Duration : 1 h 53 min
Overall bit rate : 2 750 kb/s
Encoded date : UTC 2018-07-14 15:53:11
Writing application : mkvmerge v7.8.0 ('River Man') 32bit built on Mar 27 2015 16:18:02
Writing library : libebml v1.3.1 + libmatroska v1.4.2
Video
ID : 1
Format : AVC
Format/Info : Advanced Video Codec
Format profile : High@L4.1
Format settings, CABAC : Yes
Format settings, ReFrames : 16 frames
Codec ID : V_MPEG4/ISO/AVC
Duration : 1 h 53 min
Bit rate : 2 364 kb/s
Width : 1 056 pixels
Height : 472 pixels
Display aspect ratio : 2.25:1
Frame rate mode : Constant
Frame rate : 24.000 FPS
Color space : YUV
Chroma subsampling : 4:2:0
Bit depth : 8 bits
Scan type : Progressive
Bits/(Pixel*Frame) : 0.198
Stream size : 1.83 GiB (84%)
Title : Совсем не простая история
Writing library : x264 core 152 r2851kMod ba24899
Encoding settings : cabac=1 / ref=16 / deblock=1:-2:-2 / analyse=0x3:0x113 / me=umh / subme=11 / psy=1 / fade_compensate=0.00 / psy_rd=1.10:0.15 / mixed_ref=1 / me_range=32 / chroma_me=1 / trellis=2 / 8x8dct=1 / cqm=0 / deadzone=21,11 / fast_pskip=0 / chroma_qp_offset=-3 / threads=12 / lookahead_threads=3 / sliced_threads=0 / nr=0 / decimate=0 / interlaced=0 / bluray_compat=0 / constrained_intra=0 / bframes=11 / b_pyramid=2 / b_adapt=2 / b_bias=0 / direct=3 / weightb=1 / open_gop=0 / weightp=2 / keyint=240 / keyint_min=24 / scenecut=40 / intra_refresh=0 / rc_lookahead=60 / rc=2pass / mbtree=0 / bitrate=2364 / ratetol=1.0 / qcomp=0.65 / qpmin=0 / qpmax=69 / qpstep=4 / cplxblur=20.0 / qblur=0.5 / vbv_maxrate=62500 / vbv_bufsize=78125 / nal_hrd=none / filler=0 / ip_ratio=1.30 / pb_ratio=1.30 / aq=1:0.50
Language : Russian
Default : Yes
Forced : No
Color range : Limited
Color primaries : BT.709
Transfer characteristics : BT.709
Matrix coefficients : BT.709
Audio
ID : 2
Format : AC-3
Format/Info : Audio Coding 3
Mode extension : CM (complete main)
Format settings, Endianness : Big
Codec ID : A_AC3
Duration : 1 h 53 min
Bit rate mode : Constant
Bit rate : 384 kb/s
Channel(s) : 6 channels
Channel positions : Front: L C R, Side: L R, LFE
Sampling rate : 48.0 kHz
Frame rate : 31.250 FPS (1536 spf)
Compression mode : Lossy
Stream size : 312 MiB (14%)
Title : AC-3; 16 bits 48 Khz; 5.1ch 384 Kbps; CBR
Language : Russian
Default : Yes
Forced : No
 
Не забывайте говорить Спасибо. Не уходите с раздачи!   
Торрент: Зарегистрирован [14 июл 2018, 18:08] Для скачивания .torrent
необходима регистрация
Или скачать с помощью
MediaGet
Статус:
Проверен
 
.torrent скачан: 0 раз
Хэш: e2c0c533c244ef8be0de0b7276f3c5a867f0ed7b
Размер: 2.18 ГБ (2 341 265 433 байт)
Стать Автором раздачи
 
 
Раздал: 0 байт
Скачал: 0 байт
Ратио: Inf.
Сообщения: 487468
Зарегистрирован: 17 апр 2014, 13:57


  • Похожие торренты
    Ответы
    Просмотры
    Последнее сообщение

Вернуться в Отечественные фильмы 2011 - 2015 года

Ресурс не предоставляет электронные версии произведений, а занимается лишь коллекционированием и каталогизацией ссылок, присылаемых и публикуемых на форуме нашими читателями. Если вы являетесь правообладателем какого-либо представленного материала и не желаете чтобы ссылка на него находилась в нашем каталоге, свяжитесь с нами и мы незамедлительно удалим её. Файлы для обмена на трекере предоставлены пользователями сайта, и администрация не несёт ответственности за их содержание. Просьба не заливать файлы, защищенные авторскими правами, а также файлы нелегального содержания!
cron