Братья Вентура / The Venture Bros. / Сезон: 5 / Серии: 1-9 (9) (Джексон Паблик, Док Хаммер / Jackson Publick, Doc Hammer) [2012-2013, Чёрная Комедия, Пародия, Приключения, BDRip 720p] VO (Voice Power) + Sub (Rus, Eng)

 
 Статистика раздачи 
Размер: 5.95 ГБ   |  Зарегистрирован: 11 янв 2013, 03:48   |   .torrent скачан: 0 раз
Сидеров: 1  [ 0 байт/сек ]     Личеров: 0  [ 0 байт/сек ]  
  

Братья Вентура / The Venture Bros. / Сезон: 5 / Серии: 1-9 (9) (Джексон Паблик, Док Хаммер / Jackson Publick, Doc Hammer) [2012-2013, Чёрная Комедия, Пародия, Приключения, BDRip 720p] VO (Voice Power) + Sub (Rus, Eng)

Сообщение Nakazhu » 13 июл 2018, 23:33

Братья Вентура / The Venture Bros.
Страна: США
Студия: Astro Base GO!, Titmouse, Inc.
Жанр: Чёрная Комедия, Пародия, Приключения
Продолжительность: ~ 22 мин
Год выпуска: 2012-2013
Перевод: Одноголосый закадровый |Voice Power| (только 1-8 серии)
Русские субтитры: { Carma Is A Bitch & SergeZuich }
Режиссёр: Джексон Паблик, Док Хаммер / Jackson Publick, Doc Hammer
Роли озвучивали: Джексон Паблик, Док Хаммер, Джеймс Урбаняк, Патрик Уобертон, Майкл Синтерниклаас, Дана Шнайдер, Стивен Ретеззи
Описание: Пятый сезон увлекательного и остросюжетного мультсериала Братья Вентура.
Расслабьтесь и получайте удовольствие от нетривиального юмора и качественной анимации.

Список Серий:
01 What Color is Your Cleansuit? / Какого Цвета Твой Комбинезон?
02 A Very Venture Halloween / Очень Вентурный Хэллоуин
03 Venture Libre / Вентура Либре
04 SPHINX Rising / Восстание С.Ф.И.Н.К.С.'а
05 Spanakopita! / Спанакопита!
06 O.S.I. Love You / O.S. Я Люблю Тебя
07 Momma's Boys / Мамины Мальчики
08 Bot Seeks Bot / Бот Ищет Бота
09 The Devil's Grip / Одержим Дьяволом
Качество: BDRip 720p |NTb|
Формат: MKV
Видео: MPEG-4 AVC, 1280x720, 23.976 fps, ~ 3000 kbps
Аудио 1: Русский, AC3 Dolby Digital, 6 ch, 640 kbps, 48 kHz
Аудио 2: Английский, AC3 Dolby Digital, 6 ch, 640 kbps, 48 kHz
Аудио 3: Английский, AC3 Dolby Digital, 2 ch, 192 kbps, 48 kHz (комментарии авторов)
Субтитры: Русские, Английские | Advanced Sub Station Alpha
Сэмпл
Все раздачи мультсериала
1 сезон: DVDRip-AVC
2 сезон: DVDRip-AVC
3 сезон: HDRip | BDRip 720p | BDRip 1080p
4 сезон: HDRip | BDRip 720p | BDRip 1080p
5 сезон: HDRip | BDRip 720p | BDRip 1080p | BDRemux 1080p
6 сезон: HDRip | BDRip 720p | BDRip 1080p | BDRemux 1080p

Общее
Уникальный идентификатор : 189358814644423885941374488354322644134 (0x8E752E5EE961C6FFBAA53615A49FFCA6)
Полное имя : C:\Раздачи\The.Venture.Bros.S05.2012-2013.x264.BDRip.720p-SergeZuich\01 What Color is Your Cleansuit.mkv
Формат : Matroska
Версия формата : Version 4 / Version 2
Размер файла : 1,11 Гбайт
Продолжительность : 45 м. 5 с.
Общий поток : 3536 Кбит/сек
Дата кодирования : UTC 2017-05-26 00:43:09
Программа кодирования : mkvmerge v8.3.0 ('Over the Horizon') 64bit
Библиотека кодирования : libebml v1.3.1 + libmatroska v1.4.2
Видео
Идентификатор : 1
Формат : AVC
Формат/Информация : Advanced Video Codec
Профиль формата : High@L4.1
Параметр CABAC формата : Да
Параметр ReFrames формата : 9 кадров
Идентификатор кодека : V_MPEG4/ISO/AVC
Продолжительность : 45 м. 5 с.
Битрейт : 2061 Кбит/сек
Ширина : 1280 пикселей
Высота : 720 пикселей
Соотношение сторон : 16:9
Режим частоты кадров : Постоянный
Частота кадров : 23,976 (24000/1001) кадра/сек
Цветовое пространство : YUV
Субдискретизация насыщенности : 4:2:0
Битовая глубина : 8 бит
Тип развёртки : Прогрессивная
Бит/(Пиксели*Кадры) : 0.093
Размер потока : 665 Мбайт (58%)
Заголовок : What Color is Your Cleansuit?
Библиотека кодирования : x264 core 148 r2705kMod 3f5ed56
Настройки программы : cabac=1 / ref=9 / deblock=1:-3:-3 / analyse=0x3:0x133 / me=umh / subme=10 / psy=1 / fade_compensate=0.00 / psy_rd=0.60:0.00 / mixed_ref=1 / me_range=32 / chroma_me=1 / trellis=2 / 8x8dct=1 / cqm=0 / deadzone=21,11 / fast_pskip=1 / chroma_qp_offset=-2 / threads=12 / lookahead_threads=2 / sliced_threads=0 / nr=0 / decimate=1 / interlaced=0 / bluray_compat=0 / constrained_intra=0 / fgo=0 / bframes=8 / b_pyramid=2 / b_adapt=2 / b_bias=0 / direct=3 / weightb=1 / open_gop=0 / weightp=2 / keyint=250 / keyint_min=23 / scenecut=40 / intra_refresh=0 / rc=crf / mbtree=0 / crf=17.0000 / qcomp=0.60 / qpmin=0 / qpmax=69 / qpstep=4 / ip_ratio=1.30 / pb_ratio=1.20 / aq=3:0.60
Default : Да
Forced : Нет
Аудио #1
Идентификатор : 2
Формат : AC-3
Формат/Информация : Audio Coding 3
Расширение режима : CM (complete main)
Параметр Endianness формата : Big
Идентификатор кодека : A_AC3
Продолжительность : 45 м. 5 с.
Вид битрейта : Постоянный
Битрейт : 640 Кбит/сек
Каналы : 6 каналов
Расположение каналов : Front: L C R, Side: L R, LFE
Частота : 48,0 КГц
Частота кадров : 31,250 кадров/сек (1536 spf)
Метод сжатия : С потерями
Размер потока : 206 Мбайт (18%)
Заголовок : VO { Voice Power } - AC3 Dolby Digital, 6ch, 640 kbps, 48 kHz
Язык : Russian
Default : Да
Forced : Нет
Аудио #2
Идентификатор : 3
Формат : AC-3
Формат/Информация : Audio Coding 3
Расширение режима : CM (complete main)
Параметр Endianness формата : Big
Идентификатор кодека : A_AC3
Продолжительность : 45 м. 5 с.
Вид битрейта : Постоянный
Битрейт : 640 Кбит/сек
Каналы : 6 каналов
Расположение каналов : Front: L C R, Side: L R, LFE
Частота : 48,0 КГц
Частота кадров : 31,250 кадров/сек (1536 spf)
Метод сжатия : С потерями
Размер потока : 206 Мбайт (18%)
Заголовок : Original - AC3 Dolby Digital, 6ch, 640 kbps, 48 kHz
Язык : English
Default : Нет
Forced : Нет
Аудио #3
Идентификатор : 4
Формат : AC-3
Формат/Информация : Audio Coding 3
Расширение режима : CM (complete main)
Параметр Endianness формата : Big
Идентификатор кодека : A_AC3
Продолжительность : 45 м. 5 с.
Вид битрейта : Постоянный
Битрейт : 192 Кбит/сек
Каналы : 2 канала
Расположение каналов : Front: L R
Частота : 48,0 КГц
Частота кадров : 31,250 кадров/сек (1536 spf)
Метод сжатия : С потерями
Размер потока : 61,9 Мбайт (5%)
Заголовок : Commentary with Jackson Publick and Doc Hammer - AC3 Dolby Digital, 2ch, 192 kbps, 48 kHz
Язык : English
Default : Нет
Forced : Нет
Текст #1
Идентификатор : 5
Формат : ASS
Идентификатор кодека : S_TEXT/ASS
Идентификатор кодека/Информация : Advanced Sub Station Alpha
Продолжительность : 44 м. 52 с.
Битрейт : 294 бит/сек
Count of elements : 896
Метод сжатия : Без потерь
Размер потока : 96,7 Кбайт (0%)
Заголовок : Какого Цвета Твой Комбинезон?
Язык : Russian
Default : Да
Forced : Нет
Текст #2
Идентификатор : 6
Формат : ASS
Идентификатор кодека : S_TEXT/ASS
Идентификатор кодека/Информация : Advanced Sub Station Alpha
Продолжительность : 44 м. 52 с.
Битрейт : 243 бит/сек
Count of elements : 1076
Метод сжатия : Без потерь
Размер потока : 80,2 Кбайт (0%)
Заголовок : What Color is Your Cleansuit?
Язык : English
Default : Нет
Forced : Нет
Текст #3
Идентификатор : 7
Формат : ASS
Идентификатор кодека : S_TEXT/ASS
Идентификатор кодека/Информация : Advanced Sub Station Alpha
Продолжительность : 44 м. 53 с.
Битрейт : 256 бит/сек
Count of elements : 1132
Метод сжатия : Без потерь
Размер потока : 84,4 Кбайт (0%)
Заголовок : What Color is Your Cleansuit? (SDH)
Язык : English
Default : Нет
Forced : Нет
Меню
00:00:00.000 : en:00:00:00.000
00:03:04.518 : en:00:03:04.518
00:10:54.237 : en:00:10:54.237
00:22:10.829 : en:00:22:10.829
00:32:05.841 : en:00:32:05.841
00:44:08.771 : en:00:44:08.771
00:44:35.673 : en:00:44:35.673
 
Не забывайте говорить Спасибо. Не уходите с раздачи!   
Торрент: Зарегистрирован [11 янв 2013, 03:48] Скачать торрент
Скачать торрент
[ Размер 30.69 КБ / Просмотров 2 ]
Статус:
Проверен
 
.torrent скачан: 0 раз
Хэш: 0a4e95020769eac334567153e4fe9895cb4ab053
Размер: 5.95 ГБ (6 386 664 037 байт)
Стать Автором раздачи
 
 
Раздал: 0 байт
Скачал: 0 байт
Ратио: Inf.
Сообщения: 487468
Зарегистрирован: 17 апр 2014, 13:57


  • Похожие торренты
    Ответы
    Просмотры
    Последнее сообщение

Вернуться в Мультсериалы

Ресурс не предоставляет электронные версии произведений, а занимается лишь коллекционированием и каталогизацией ссылок, присылаемых и публикуемых на форуме нашими читателями. Если вы являетесь правообладателем какого-либо представленного материала и не желаете чтобы ссылка на него находилась в нашем каталоге, свяжитесь с нами и мы незамедлительно удалим её. Файлы для обмена на трекере предоставлены пользователями сайта, и администрация не несёт ответственности за их содержание. Просьба не заливать файлы, защищенные авторскими правами, а также файлы нелегального содержания!
cron