Маньяк-полицейский 2 / Maniac Cop 2 (Уильям Лустиг / William Lustig) [1990, США, ужасы, боевик, BDRip-AVC] DVO (REN-TV) + AVO (В. Горчаков)

 
 Статистика раздачи 
Размер: 2.15 ГБ   |  Зарегистрирован: 30 июн 2015, 15:56   |   .torrent скачан: 0 раз
Сидеров: 1  [ 0 байт/сек ]     Личеров: 0  [ 0 байт/сек ]  
  

Маньяк-полицейский 2 / Maniac Cop 2 (Уильям Лустиг / William Lustig) [1990, США, ужасы, боевик, BDRip-AVC] DVO (REN-TV) + AVO (В. Горчаков)

Сообщение Nakazhu » 13 июл 2018, 11:41

Маньяк-полицейский 2 / Maniac Cop 2
Страна: США
Жанр: ужасы, боевик
Год выпуска: 1990
Продолжительность: 01:27:22
Перевод 1: Профессиональный (двухголосый закадровый) REN-TV
Перевод 2: Авторский (одноголосый закадровый) Василий Горчаков
Субтитры: нет
Оригинальная аудиодорожка: английский
Режиссер: Уильям Лустиг / William Lustig
В ролях: Роберт Дави, Клаудия Кристиан, Майкл Лернер, Брюс Кэмпбелл, Лаурен Лэндон, Роберт З’Дар, Кларенс Уильямс III
Описание: Все думают, что Мэтт Корделл утонул в пучинах реки, куда он упал в полицейском грузовике, но они жестоко ошибаются. Мэтт сам назначил себя судьей, жюри присяжных и палачом. Совсем недавно он был героем, лучшим полицейским, но его приверженность к справедливости добавила ему врагов, властных и безжалостных, могущественных и непримиримых. Они отправили его в тюрьму Синг-Синг прямо в лапы злых преступников, которых он сам недавно засадил за решетку. Но теперь их обман и коррупция создали монстра, которого не может контролировать никто. Восставший из мертвых маньяк-полицейский снова на посту и единственный билет, который он выписывает- это билет в морг…
Доп. информация:
Видеоряд взят из этой раздачи http://rutracker.org/forum/viewtopic.php?t=4655808, за которую благодарим (T-1000).
За звуковую дорожку с переводом телеканала REN-TV большое спасибо Emslie.
За звуковую дорожку с переводом В. Горчакова большое спасибо Kino-profan.
За синхронизацию звуковой дороги с переводом REN-TV огромная благодарность JUSTKANT.
За синхронизацию звуковой дороги с переводом В.Горчакова и работу со звуком в отношении данной дороги, в т.ч. восстановление правильного тона переводчика, огромная благодарность ale_x2008.
Звуковую дорожку REN-TV немного почистил от фонового шума shocker80, за что ему также выражаю свою благодарность.
Обращаю внимание, что в переводе REN-TV есть пара маленьких вставок из перевода В.Горчакова в следующих интервалах:
00:00:00 – 00:00:19; 00:29:05 – 00:29:14

Сэмпл: https://www.sendspace.com/file/iz8js6
Качество видео: BDRip-AVC
Формат видео: MKV
Видео: 1024x552, 23.976 fps, AVC, 2950 Kbps
Аудио 1: 48 KHz, AC3, 2 ch, 192 Kbps
Аудио 2: 48 KHz, AC3, 2 ch, 192 Kbps
Аудио 3: 48 KHz, AC3, 2 ch, 192 Kbps
General
General
Unique ID : 196066407270814132700615841856162878561 (0x938104385E8F6EF09C19723EA057D461)
Complete name : C:\Users\Сергей\Downloads\Маньяк - полицейский 2.mkv
Format : Matroska
Format version : Version 2
File size : 2.15 GiB
Duration : 1h 27mn
Overall bit rate : 3 526 Kbps
Movie name : -=MediaClub - Odessit=-
Encoded date : UTC 2018-07-13 05:23:27
Writing application : mkvmerge v5.4.0 ('Piper') built on Mar 10 2012 13:34:39
Writing library : libebml v1.2.3 + libmatroska v1.3.0
Video
ID : 1
Format : AVC
Format/Info : Advanced Video Codec
Format profile : High@L4.1
Format settings, CABAC : Yes
Format settings, ReFrames : 10 frames
Codec ID : V_MPEG4/ISO/AVC
Duration : 1h 27mn
Bit rate : 2 950 Kbps
Width : 1 024 pixels
Height : 552 pixels
Display aspect ratio : 1.85:1
Frame rate mode : Constant
Frame rate : 23.976 fps
Color space : YUV
Chroma subsampling : 4:2:0
Bit depth : 8 bits
Scan type : Progressive
Bits/(Pixel*Frame) : 0.218
Stream size : 1.76 GiB (82%)
Writing library : x264 core 130 r2273 b3065e6
Encoding settings : cabac=1 / ref=10 / deblock=1:-3:-3 / analyse=0x3:0x133 / me=umh / subme=11 / psy=1 / psy_rd=1.00:0.20 / mixed_ref=1 / me_range=48 / chroma_me=1 / trellis=2 / 8x8dct=1 / cqm=0 / deadzone=21,11 / fast_pskip=0 / chroma_qp_offset=-3 / threads=6 / lookahead_threads=1 / sliced_threads=0 / nr=0 / decimate=0 / interlaced=0 / bluray_compat=0 / constrained_intra=0 / bframes=9 / b_pyramid=2 / b_adapt=2 / b_bias=0 / direct=3 / weightb=1 / open_gop=0 / weightp=2 / keyint=240 / keyint_min=23 / scenecut=40 / intra_refresh=0 / rc=2pass / mbtree=0 / bitrate=2950 / ratetol=1.0 / qcomp=0.60 / qpmin=0 / qpmax=69 / qpstep=4 / cplxblur=20.0 / qblur=0.5 / ip_ratio=1.40 / pb_ratio=1.30 / aq=1:1.00
Language : English
Default : Yes
Forced : No
Audio #1
ID : 2
Format : AC-3
Format/Info : Audio Coding 3
Mode extension : CM (complete main)
Format settings, Endianness : Big
Codec ID : A_AC3
Duration : 1h 27mn
Bit rate mode : Constant
Bit rate : 192 Kbps
Channel(s) : 2 channels
Channel positions : Front: L R
Sampling rate : 48.0 KHz
Bit depth : 16 bits
Compression mode : Lossy
Stream size : 120 MiB (5%)
Title : DVO REN-TV
Language : Russian
Default : Yes
Forced : No
Audio #2
ID : 3
Format : AC-3
Format/Info : Audio Coding 3
Mode extension : CM (complete main)
Format settings, Endianness : Big
Codec ID : A_AC3
Duration : 1h 27mn
Bit rate mode : Constant
Bit rate : 192 Kbps
Channel(s) : 2 channels
Channel positions : Front: L R
Sampling rate : 48.0 KHz
Bit depth : 16 bits
Compression mode : Lossy
Stream size : 120 MiB (5%)
Title : AVO В.Горчаков
Language : Russian
Default : No
Forced : No
Audio #3
ID : 4
Format : AC-3
Format/Info : Audio Coding 3
Mode extension : CM (complete main)
Format settings, Endianness : Big
Codec ID : A_AC3
Duration : 1h 27mn
Bit rate mode : Constant
Bit rate : 192 Kbps
Channel(s) : 2 channels
Channel positions : Front: L R
Sampling rate : 48.0 KHz
Bit depth : 16 bits
Compression mode : Lossy
Stream size : 120 MiB (5%)
Language : English
Default : No
Forced : No
Menu
00:00:00.000 : en:Chapter 01
00:05:42.924 : en:Chapter 02
00:10:52.443 : en:Chapter 03
00:17:27.963 : en:Chapter 04
00:22:51.243 : en:Chapter 05
00:28:11.398 : en:Chapter 06
00:37:30.331 : en:Chapter 07
00:42:21.997 : en:Chapter 08
00:46:21.820 : en:Chapter 09
00:51:00.140 : en:Chapter 10
00:56:42.440 : en:Chapter 11
01:03:04.780 : en:Chapter 12
01:07:35.259 : en:Chapter 13
01:12:50.448 : en:Chapter 14
01:17:00.532 : en:Chapter 15
01:23:21.371 : en:Chapter 16
Релиз обновлён 13.07.2018г. в связи с заменой видеоряда и добавлением раритетного перевода REN-TV.
 
Не забывайте говорить Спасибо. Не уходите с раздачи!   
Торрент: Зарегистрирован [30 июн 2015, 15:56] Скачать торрент
Скачать торрент
[ Размер 11.28 КБ / Просмотров 0 ]
Статус:
Проверен
 
.torrent скачан: 0 раз
Хэш: 7ac87d91ad2e8cb11b17efe6f4da0780356689e1
Размер: 2.15 ГБ (2 310 585 215 байт)
Стать Автором раздачи
 
 
Раздал: 0 байт
Скачал: 0 байт
Ратио: Inf.
Сообщения: 487468
Зарегистрирован: 17 апр 2014, 13:57


  • Похожие торренты
    Ответы
    Просмотры
    Последнее сообщение

Вернуться в Зарубежные фильмы до 1990 года

Ресурс не предоставляет электронные версии произведений, а занимается лишь коллекционированием и каталогизацией ссылок, присылаемых и публикуемых на форуме нашими читателями. Если вы являетесь правообладателем какого-либо представленного материала и не желаете чтобы ссылка на него находилась в нашем каталоге, свяжитесь с нами и мы незамедлительно удалим её. Файлы для обмена на трекере предоставлены пользователями сайта, и администрация не несёт ответственности за их содержание. Просьба не заливать файлы, защищенные авторскими правами, а также файлы нелегального содержания!
cron