Меч дракона / Dragon Blade / Tian jiang xiong shi (Дэниэл Ли / Daniel Lee) [2015, Китай, боевик, драма, приключения, BDRip 1080p] [USA cut] MVO (SDI Media) + Original + Sub Eng

 
 Статистика раздачи 
Размер: 7.79 ГБ   |  Зарегистрирован: 02 июл 2018, 11:10   |   .torrent скачан: 0 раз
Сидеров: 1  [ 0 байт/сек ]     Личеров: 0  [ 0 байт/сек ]  
  

Меч дракона / Dragon Blade / Tian jiang xiong shi (Дэниэл Ли / Daniel Lee) [2015, Китай, боевик, драма, приключения, BDRip 1080p] [USA cut] MVO (SDI Media) + Original + Sub Eng

Сообщение Nakazhu » 12 июл 2018, 23:48

Меч дракона / Dragon Blade / Tian jiang xiong shi / USA cut
Страна: Китай
Жанр: боевик, драма, приключения
Год выпуска: 2015
Продолжительность: 01:43:41
Перевод: Профессиональный (многоголосый закадровый) SDI Media
Субтитры: английские (forced, full, SDH)
Оригинальная аудиодорожка: английский+китайский
Режиссер: Дэниэл Ли / Daniel Lee
В ролях: Джеки Чан, Джон Кьюсак, Эдриан Броуди, Шарни Винсон, Линь Пэн, Бенни Уркидез, Чхве Ши Вон, Темур Мамисашвили, Томер Оз, Кевин Ли
Описание: Действие фильма разворачивается в Древнем Китае во времена правления династии Хань. Римский полководец Луций с легионом своих солдат оказывается на территории Китая. В это же время командир отряда охраны Западного региона Хо Ань в результате предательства своих врагов становится рабом. И этим двум воинам было суждено встретиться в Западной пустыне, где развернётся эпическое сражение. Однако биться они будут не друг против друга, как можно было бы подумать, а против алчного императора Тиберия за суверенитет Китая.
Доп. информация: Американская версия короче оригинальной на 24 минуты, отличается по монтажу.
Сэмпл: http://multi-up.com/1203664
Качество видео: BDRip 1080p
Формат видео: MKV
Видео: AVC, 1920x808 (2.35:1), 23.976 fps, 9 055 Kbps (0.243 bit/pixel)
Аудио: AC-3, 48.0 KHz, 2 ch, 192 Kbps, CBR - русский
Аудио 2: DTS, 48.0 KHz, 6 ch, 1 510 Kbps, CBR - английский+китайский
Код: Выделить всё
Общее
Уникальный идентификатор                 : 244339796918225407672457463289112673359 (0xB7D222160E0C13919DFCFEBBD537BC4F)
Полное имя                               : M:\Dragon.Blade.2015.1080p.BluRay.x264-PSYCHD.mkv
Формат                                   : Matroska
Версия формата                           : Version 2
Размер файла                             : 7,79 Гбайт
Продолжительность                        : 1 ч. 43 м.
Общий поток                              : 10,8 Мбит/сек
Название фильма                          : Меч дракона / Dragon Blade / Tian jiang xiong shi (2015)
Дата кодирования                         : UTC 2018-07-12 20:27:39
Программа кодирования                    : mkvmerge v8.2.0 ('World of Adventure') 64bit
Библиотека кодирования                   : libebml v1.3.1 + libmatroska v1.4.2
Видео
Идентификатор                            : 1
Формат                                   : AVC
Формат/Информация                        : Advanced Video Codec
Профиль формата                          : High@L4.1
Настройки формата                        : CABAC / 5 Ref Frames
Параметр CABAC формата                   : Да
Параметр RefFrames формата               : 5 кадров
Идентификатор кодека                     : V_MPEG4/ISO/AVC
Продолжительность                        : 1 ч. 43 м.
Битрейт                                  : 9055 Кбит/сек
Ширина                                   : 1920 пикселей
Высота                                   : 808 пикселей
Соотношение сторон                       : 2,40:1
Режим частоты кадров                     : Постоянный
Частота кадров                           : 23,976 (24000/1001) кадра/сек
Цветовое пространство                    : YUV
Субдискретизация насыщенности            : 4:2:0
Битовая глубина                          : 8 бит
Тип развёртки                            : Прогрессивная
Бит/(Пиксели*Кадры)                      : 0.243
Размер потока                            : 6,40 Гбайт (82%)
Библиотека кодирования                   : x264 core 148 r2638 7599210
Настройки программы                      : cabac=1 / ref=5 / deblock=1:-3:-3 / analyse=0x3:0x113 / me=umh / subme=8 / psy=1 / psy_rd=1.00:0.00 / mixed_ref=1 / me_range=16 / chroma_me=1 / trellis=1 / 8x8dct=1 / cqm=0 / deadzone=21,11 / fast_pskip=1 / chroma_qp_offset=-2 / threads=24 / lookahead_threads=4 / sliced_threads=0 / nr=0 / decimate=1 / interlaced=0 / bluray_compat=0 / constrained_intra=0 / bframes=3 / b_pyramid=2 / b_adapt=2 / b_bias=0 / direct=3 / weightb=1 / open_gop=0 / weightp=2 / keyint=240 / keyint_min=24 / scenecut=40 / intra_refresh=0 / rc_lookahead=50 / rc=2pass / mbtree=1 / bitrate=9055 / ratetol=1.0 / qcomp=0.60 / qpmin=0 / qpmax=69 / qpstep=4 / cplxblur=20.0 / qblur=0.5 / ip_ratio=1.40 / aq=1:1.00
Язык                                     : English
Default                                  : Да
Forced                                   : Нет
Аудио #1
Идентификатор                            : 2
Формат                                   : AC-3
Формат/Информация                        : Audio Coding 3
Идентификатор кодека                     : A_AC3
Продолжительность                        : 1 ч. 43 м.
Вид битрейта                             : Постоянный
Битрейт                                  : 192 Кбит/сек
Каналы                                   : 2 канала
Расположение каналов                     : Front: L R
Частота                                  : 48,0 КГц
Частота кадров                           : 31,250 кадров/сек (1536 SPF)
Битовая глубина                          : 16 бит
Метод сжатия                             : С потерями
Размер потока                            : 142 Мбайт (2%)
Заголовок                                : Профессиональный (многоголосый закадровый) SDI Media
Язык                                     : Russian
ServiceKind/String                       : Complete Main
Default                                  : Да
Forced                                   : Нет
Аудио #2
Идентификатор                            : 3
Формат                                   : DTS
Формат/Информация                        : Digital Theater Systems
Идентификатор кодека                     : A_DTS
Продолжительность                        : 1 ч. 43 м.
Вид битрейта                             : Постоянный
Битрейт                                  : 1509 Кбит/сек
Каналы                                   : 6 каналов
Расположение каналов                     : Front: L C R, Side: L R, LFE
Частота                                  : 48,0 КГц
Частота кадров                           : 93,750 кадра/сек (512 SPF)
Битовая глубина                          : 24 бит
Метод сжатия                             : С потерями
Размер потока                            : 1,09 Гбайт (14%)
Язык                                     : Chinese
Default                                  : Нет
Forced                                   : Нет
Текст #1
Идентификатор                            : 4
Формат                                   : UTF-8
Идентификатор кодека                     : S_TEXT/UTF8
Идентификатор кодека/Информация          : UTF-8 Plain Text
Заголовок                                : Forced
Язык                                     : English
Default                                  : Нет
Forced                                   : Да
Текст #2
Идентификатор                            : 5
Формат                                   : UTF-8
Идентификатор кодека                     : S_TEXT/UTF8
Идентификатор кодека/Информация          : UTF-8 Plain Text
Язык                                     : English
Default                                  : Нет
Forced                                   : Нет
Текст #3
Идентификатор                            : 6
Формат                                   : UTF-8
Идентификатор кодека                     : S_TEXT/UTF8
Идентификатор кодека/Информация          : UTF-8 Plain Text
Заголовок                                : SDH
Язык                                     : English
Default                                  : Нет
Forced                                   : Нет
Меню
00:00:00.000                             : en:00:00:00.000
00:07:55.183                             : en:00:07:55.183
00:11:31.691                             : en:00:11:31.691
00:16:32.033                             : en:00:16:32.033
00:23:41.462                             : en:00:23:41.462
00:31:01.526                             : en:00:31:01.526
00:39:00.588                             : en:00:39:00.588
00:45:59.632                             : en:00:45:59.632
00:53:31.750                             : en:00:53:31.750
01:00:32.838                             : en:01:00:32.838
01:05:29.217                             : en:01:05:29.217
01:10:16.129                             : en:01:10:16.129
01:16:30.461                             : en:01:16:30.461
01:22:42.499                             : en:01:22:42.499
01:26:50.414                             : en:01:26:50.414
01:37:38.311                             : en:01:37:38.311

Торрент перезалит 12.07.18 - заменен рип
 
Не забывайте говорить Спасибо. Не уходите с раздачи!   
Торрент: Зарегистрирован [02 июл 2018, 11:10] Для скачивания .torrent
необходима регистрация
Или скачать с помощью
MediaGet
Статус:
Проверен
 
.torrent скачан: 0 раз
Хэш: 9095667e14bb5d90a31f063750ef75ae41874a30
Размер: 7.79 ГБ (8 362 479 387 байт)
Стать Автором раздачи
 
 
Раздал: 0 байт
Скачал: 0 байт
Ратио: Inf.
Сообщения: 486962
Зарегистрирован: 17 апр 2014, 13:57


  • Похожие торренты
    Ответы
    Просмотры
    Последнее сообщение

Вернуться в Азиатские фильмы (HD Video)

Ресурс не предоставляет электронные версии произведений, а занимается лишь коллекционированием и каталогизацией ссылок, присылаемых и публикуемых на форуме нашими читателями. Если вы являетесь правообладателем какого-либо представленного материала и не желаете чтобы ссылка на него находилась в нашем каталоге, свяжитесь с нами и мы незамедлительно удалим её. Файлы для обмена на трекере предоставлены пользователями сайта, и администрация не несёт ответственности за их содержание. Просьба не заливать файлы, защищенные авторскими правами, а также файлы нелегального содержания!
cron