Мария Магдалина / Mary Magdalene (2018) BDRip 1080p | Лицензия

 
 Статистика раздачи 
Размер: 11.95 ГБ   |  Зарегистрирован: 12 июл 2018, 22:43   |   .torrent скачан: 0 раз
Сидеров: 1  [ 0 байт/сек ]     Личеров: 0  [ 0 байт/сек ]  
  

Мария Магдалина / Mary Magdalene (2018) BDRip 1080p | Лицензия

Сообщение Lester » 12 июл 2018, 23:23

Информация о фильме
Название: Мария Магдалина
Оригинальное название: Mary Magdalene
Год выпуска: 2018
Жанр: драма
Режиссер: Гарт Дэвис
В ролях: Руни Мара (Mary Magdalene), Хоакин Феникс (Jesus), Чиветель Эджиофор (Peter), Тахар Рахим (Judas), Ариана Лабед (Rachel), Дени Меноше (Daniel), Лубна Азабаль (Susannah), Чеки Карио (Elisha), Чарльз Бабалола (Andrew), Тауфик Бархом (James), Райан Корр (Joseph), Ури Гавриел (Philip)
О фильме: Еще одна версия истории святой Марии Магдалины, ученицы и последовательницы Спасителя. Ее загадочный и противоречивый образ всегда вызывал интерес. Спасенная от одержимости бесами Христом, она присоединяется к Его ученикам и становится одной из самых верных приверженцев. Рядом с Учителем она прошла весь путь и была свидетельницей совершенных Им чудес и стояла во время распятия рядом с Крестом. Первой из людей встретила она Христа после Воскрешения и принесла эту радостную весть остальным апостолам.

Страна: Великобритания, США, Австралия
Студия: Film4, Porchlight Films Pty. Ltd.
Продолжительность: 01:59:48
Перевод: Профессиональный (дублированный) Blu-ray EUR
Файл
Качество: BDRip 1080p
Формат: Matroska
Видео: 1920x872 at 23.976 fps, x264, ~12000 kbps avg
Аудио#1: Russian: 48 kHz, DTS, 3/2 (L,C,R,l,r) + LFE ch, ~768 kbps avg |Дубляж, Blu-ray EUR|
Аудио#2: English: 48 kHz, DTS, 3/2 (L,C,R,l,r) + LFE ch, ~1509 kbps avg
Субтитры: Russian, English, French
***Сохранены оригинальные главы как на Blu-ray.
***Релиз: werecut PROD.
[*]На съёмках этого фильма Руни Мара и Хоакин Феникс стали встречаться.
Общее
Уникальный идентификатор : 219933274745385474063881027210510825989 (0xA5759BA3430949C59942A5A1AECF7A05)
Полное имя : Mary.Magdalene.2018.bdriP.108Op.werecut.PROD.mkv
Формат : Matroska
Версия формата : Version 2
Размер файла : 11,9 Гбайт
Продолжительность : 1 ч. 59 м.
Общий поток : 14,3 Мбит/сек
Название фильма : Marie Madeleine 2018 OT werecut PROD.
Дата кодирования : UTC 2018-07-12 19:27:42
Программа кодирования : mkvmerge v2.9.9 ('Tutu') built on Nov 25 2009 21:13:32
Библиотека кодирования : libebml v0.7.9 + libmatroska v0.8.1

Видео
Идентификатор : 1
Формат : AVC
Формат/Информация : Advanced Video Codec
Профиль формата : High@L4.1
Параметр CABAC формата : Да
Параметр ReFrames формата : 4 кадра
Идентификатор кодека : V_MPEG4/ISO/AVC
Продолжительность : 1 ч. 59 м.
Битрейт : 12,0 Мбит/сек
Ширина : 1920 пикселей
Высота : 872 пикселя
Соотношение сторон : 2,2:1
Режим частоты кадров : Постоянный
Частота кадров : 23,976 кадра/сек
Цветовое пространство : YUV
Субдискретизация насыщенности : 4:2:0
Битовая глубина : 8 бит
Тип развёртки : Прогрессивная
Бит/(Пиксели*Кадры) : 0.299
Размер потока : 9,81 Гбайт (82%)
Заголовок : ENCODE NEO
Библиотека кодирования : x264 core 150
Настройки программы : cabac=1 / ref=4 / deblock=1:-3:-3 / analyse=0x3:0x133 / me=umh / subme=10 / psy=1 / psy_rd=1,00:10,00 / mixed_ref=1 / me_range=24 / chroma_me=1 / trellis=2 / 8x8dct=1 / cqm=0 / deadzone=21,11 / fast_pskip=1 / chroma_qp_offset=-4 / threads=12 / lookahead_threads=2 / sliced_threads=0 / nr=0 / decimate=1 / interlaced=0 / bluray_compat=0 / constrained_intra=0 / bframes=8 / b_pyramid=2 / b_adapt=2 / b_bias=0 / direct=3 / weightb=1 / open_gop=0 / weightp=2 / keyint=240 / keyint_min=24 / scenecut=40 / intra_refresh=0 / rc_lookahead=60 / rc=2pass / mbtree=1 / bitrate=12000 / ratetol=1,0 / qcomp=0,60 / qpmin=0 / qpmax=69 / qpstep=4 / cplxblur=20,0 / qblur=0,5 / vbv_maxrate=62500 / vbv_bufsize=78125 / nal_hrd=none / filler=0 / ip_ratio=1,40 / aq=1:1,00
Язык : English
Default : Нет
Forced : Нет
Основные цвета : BT.709
Характеристики трансфера : BT.709
Коэффициенты матрицы : BT.709

Аудио #1
Идентификатор : 2
Формат : DTS
Формат/Информация : Digital Theater Systems
Режим : 16
Параметр Endianness формата : Big
Идентификатор кодека : A_DTS
Продолжительность : 1 ч. 59 м.
Вид битрейта : Постоянный
Битрейт : 768 Кбит/сек
Каналы : 6 каналов
Расположение каналов : Front: L C R, Side: L R, LFE
Частота : 48,0 КГц
Битовая глубина : 24 бит
Метод сжатия : С потерями
Размер потока : 658 Мбайт (5%)
Язык : Russian
Default : Да
Forced : Да

Аудио #2
Идентификатор : 3
Формат : DTS
Формат/Информация : Digital Theater Systems
Режим : 16
Параметр Endianness формата : Big
Идентификатор кодека : A_DTS
Продолжительность : 1 ч. 59 м.
Вид битрейта : Постоянный
Битрейт : 1509 Кбит/сек
Каналы : 6 каналов
Расположение каналов : Front: L C R, Side: L R, LFE
Частота : 48,0 КГц
Битовая глубина : 24 бит
Метод сжатия : С потерями
Размер потока : 1,26 Гбайт (11%)
Язык : English
Default : Нет
Forced : Нет

Текст #1
Идентификатор : 4
Формат : UTF-8
Идентификатор кодека : S_TEXT/UTF8
Идентификатор кодека/Информация : UTF-8 Plain Text
Язык : Russian
Default : Да
Forced : Да

Текст #2
Идентификатор : 5
Формат : UTF-8
Идентификатор кодека : S_TEXT/UTF8
Идентификатор кодека/Информация : UTF-8 Plain Text
Язык : Russian
Default : Нет
Forced : Нет

Текст #3
Идентификатор : 6
Формат : UTF-8
Идентификатор кодека : S_TEXT/UTF8
Идентификатор кодека/Информация : UTF-8 Plain Text
Язык : English
Default : Нет
Forced : Нет

Текст #4
Идентификатор : 7
Формат : UTF-8
Идентификатор кодека : S_TEXT/UTF8
Идентификатор кодека/Информация : UTF-8 Plain Text
Заголовок : SDH
Язык : English
Default : Нет
Forced : Нет

Текст #5
Идентификатор : 8
Формат : UTF-8
Идентификатор кодека : S_TEXT/UTF8
Идентификатор кодека/Информация : UTF-8 Plain Text
Заголовок : Forces
Язык : French
Default : Нет
Forced : Нет

Текст #6
Идентификатор : 9
Формат : UTF-8
Идентификатор кодека : S_TEXT/UTF8
Идентификатор кодека/Информация : UTF-8 Plain Text
Заголовок : Complets
Язык : French
Default : Нет
Forced : Нет

Меню
00:00:00.000 : en:Chapter 01
00:06:50.076 : en:Chapter 02
00:12:28.289 : en:Chapter 03
00:19:45.642 : en:Chapter 04
00:23:35.747 : en:Chapter 05
00:31:02.402 : en:Chapter 06
00:37:16.609 : en:Chapter 07
00:44:48.435 : en:Chapter 08
00:50:57.846 : en:Chapter 09
00:55:42.756 : en:Chapter 10
01:01:55.837 : en:Chapter 11
01:09:28.330 : en:Chapter 12
01:13:55.013 : en:Chapter 13
01:16:31.336 : en:Chapter 14
01:24:27.562 : en:Chapter 15
01:29:15.516 : en:Chapter 16
01:33:58.758 : en:Chapter 17
01:39:33.801 : en:Chapter 18
01:44:51.368 : en:Chapter 19
01:53:24.881 : en:Chapter 20
 
Не забывайте говорить Спасибо. Не уходите с раздачи!   
Торрент: Зарегистрирован [12 июл 2018, 22:43] Скачать торрент
Скачать торрент
[ Размер 60.65 КБ / Просмотров 1 ]
Статус:
Проверен
 
.torrent скачан: 0 раз
Хэш: e7884b8db0e274fcc05d6a01c6257ed31541255e
Размер: 11.95 ГБ (12 829 577 990 байт)
Стать Автором раздачи
 
 
Раздал: 100 ГБ
Скачал: 0 байт
Ратио: Seed.
Сообщения: 122307
Зарегистрирован: 09 апр 2015, 23:00


  • Похожие торренты
    Ответы
    Просмотры
    Последнее сообщение

Вернуться в Зарубежное кино

Ресурс не предоставляет электронные версии произведений, а занимается лишь коллекционированием и каталогизацией ссылок, присылаемых и публикуемых на форуме нашими читателями. Если вы являетесь правообладателем какого-либо представленного материала и не желаете чтобы ссылка на него находилась в нашем каталоге, свяжитесь с нами и мы незамедлительно удалим её. Файлы для обмена на трекере предоставлены пользователями сайта, и администрация не несёт ответственности за их содержание. Просьба не заливать файлы, защищенные авторскими правами, а также файлы нелегального содержания!
cron