Изюминка / Punchline (Дэвид Зельцер / David Seltzer) [1988, США, комедия, VHSRip] [Full Screen] AVO (Алексей Михалёв)

 
 Статистика раздачи 
Размер: 1.47 ГБ   |  Зарегистрирован: 12 июл 2018, 20:00   |   .torrent скачан: 0 раз
Сидеров: 1  [ 0 байт/сек ]     Личеров: 0  [ 0 байт/сек ]  
  

Изюминка / Punchline (Дэвид Зельцер / David Seltzer) [1988, США, комедия, VHSRip] [Full Screen] AVO (Алексей Михалёв)

Сообщение Nakazhu » 12 июл 2018, 23:17

Изюминка / Punchline
[Full Screen]
«It only hurts when you LAUGH!»
Страна: США
Жанр: комедия
Год выпуска: 1988
Продолжительность: 02:03:11
Перевод: Авторский (одноголосый закадровый) Алексей Михалёв
Субтитры: нет
Режиссер: Дэвид Зельцер / David Seltzer
В ролях: Сэлли Филд, Том Хэнкс, Джон Гудмен, Марк Райделл, Ким Грайст, Пол Мазурски, Pam Matteson, Джордж МакГрат, Тейлор Негрон, Барри Нейкраг, Анхель Саласар, Дэймон Уайанс, Джойси Кац, Мак Роббинс, Макс Александр, Пол Козловски, Бэрри Собель, Марти Поллио, Кэти Рич, Чарльз Дэвид Ричардс, Кейси Сэндер
Описание: У домохозяйки из Нью-Джерси Лилы Крайцик есть мечта — стать эстрадной актрисой разговорного жанра, заставлять слушателей хохотать до упаду. Она устраивается на работу аниматором в нью-йоркский клуб «Бензоколонка» и узнает, как трудно быть смешной! В течение двенадцати недель, вечер за вечером, Лила выходит на небольшую сцену, берет в руки микрофон и пытается веселить сидящих перед ней людей. Но неопытной комедиантке не удается выдавить из скептично настроенной публики, ни смешка. Дома у Лилы вместо обычного порядка воцаряется хаос, три ее дочери недовольны тем, что мама стала уделять им, так мало внимания. Однако Лила упорно идет к своей цели, и на тринадцатой неделе происходит чудо — зал отвечает на ее шутку дружным смехом и аплодисментами! Теперь уже обратной дороги нет. Лила, которая уже чувствует себя победительницей, знакомится с другим выступающим в «Бензоколонке» комедиантом Стивеном Голдом. Стивен, как и Лила, одержим желанием стать звездой эстрады, он даже бросил учебу в медицинском колледже, так как видит себя любимцем публики, а не врачом. Лила чувствует симпатию к своему коллеге и пытается скрасить его одиночество…
Доп. информация: Оцифровка VHS (личный архив) и получение VHSRip alenavova
Эксклюзив для rutracker.org. При размещении данного релиза на других сайтах ссылка на автора alenavova обязательна.
Релиз
Сэмпл: https://yadi.sk/i/GEr3Jdem3Z7VhU
Качество видео: VHSRip
Формат видео: AVI
Видео: 720x528 (1.36:1), 25 fps, XviD build 73 ~1500 kbps avg, 0.16 bit/pixel
Аудио: 48 kHz, AC3 Dolby Digital, 2/0 (L,R) ch, ~192 kbps
Код: Выделить всё
Изюминка - Punchline (by alenavova).avi
Format                      : AVI
Format/Info                 : Audio Video Interleave
File size                   : 1.47 GiB
Duration                    : 2 h 3 min
Overall bit rate            : 1 703 kb/s
Movie name                  : Изюминка - Punchline (by alenavova)
Director                    : by alenavova
Writing application         : VirtualDubMod 1.5.10.3 | www.virtualdub-fr.org || (build 2550/release)
Copyright                   : Edich2
Comment                     : Rutracker.org
Video
ID                          : 0
Format                      : MPEG-4 Visual
Format profile              : Advanced Simple@L5
Format settings             : BVOP2 / Custom Matrix
Format settings, BVOP       : 2
Format settings, QPel       : No
Format settings, GMC        : No warppoints
Format settings, Matrix     : Custom
Codec ID                    : XVID
Codec ID/Hint               : XviD
Duration                    : 2 h 3 min
Bit rate                    : 1 501 kb/s
Width                       : 720 pixels
Height                      : 528 pixels
Display aspect ratio        : 4:3
Frame rate                  : 25.000 FPS
Color space                 : YUV
Chroma subsampling          : 4:2:0
Bit depth                   : 8 bits
Scan type                   : Progressive
Compression mode            : Lossy
Bits/(Pixel*Frame)          : 0.158
Stream size                 : 1.29 GiB (88%)
Writing library             : XviD 73
Audio
ID                          : 1
Format                      : AC-3
Format/Info                 : Audio Coding 3
Codec ID                    : 2000
Duration                    : 2 h 3 min
Bit rate mode               : Constant
Bit rate                    : 192 kb/s
Channel(s)                  : 2 channels
Channel positions           : Front: L R
Sampling rate               : 48.0 kHz
Frame rate                  : 31.250 FPS (1536 SPF)
Bit depth                   : 16 bits
Compression mode            : Lossy
Stream size                 : 169 MiB (11%)
Alignment                   : Split accross interleaves
Interleave, duration        : 40  ms (1.00 video frame)
Interleave, preload duratio : 500  ms
Service kind                : Complete Main

 
Не забывайте говорить Спасибо. Не уходите с раздачи!   
Торрент: Зарегистрирован [12 июл 2018, 20:00] Скачать торрент
Скачать торрент
[ Размер 15.13 КБ / Просмотров 1 ]
Статус:
Проверен
 
.torrent скачан: 0 раз
Хэш: 1d1f6509566af67c8e56c90a372ba120fbec9bf8
Размер: 1.47 ГБ (1 573 224 448 байт)
Стать Автором раздачи
 
 
Раздал: 0 байт
Скачал: 0 байт
Ратио: Inf.
Сообщения: 487468
Зарегистрирован: 17 апр 2014, 13:57


  • Похожие торренты
    Ответы
    Просмотры
    Последнее сообщение

Вернуться в Зарубежное кино

Ресурс не предоставляет электронные версии произведений, а занимается лишь коллекционированием и каталогизацией ссылок, присылаемых и публикуемых на форуме нашими читателями. Если вы являетесь правообладателем какого-либо представленного материала и не желаете чтобы ссылка на него находилась в нашем каталоге, свяжитесь с нами и мы незамедлительно удалим её. Файлы для обмена на трекере предоставлены пользователями сайта, и администрация не несёт ответственности за их содержание. Просьба не заливать файлы, защищенные авторскими правами, а также файлы нелегального содержания!
cron