Мария Магдалина / Mary Magdalene (2018) BDRip-AVC от OlLanDGroup | Лицензия

 
 Статистика раздачи 
Размер: 1.73 ГБ   |  Зарегистрирован: 12 июл 2018, 21:40   |   .torrent скачан: 0 раз
Сидеров: 1  [ 0 байт/сек ]     Личеров: 0  [ 0 байт/сек ]  
  

Мария Магдалина / Mary Magdalene (2018) BDRip-AVC от OlLanDGroup | Лицензия

Сообщение Lester » 12 июл 2018, 22:42

Мария Магдалина / Mary Magdalene
«Её история будет рассказана впервые»



Год выпуска: 2017
Страна: Великобритания, США, Австралия
Производство: Film4, Porchlight Films Pty. Ltd.
Жанр: Драма

Режиссёр: Гарт Дэвис
В ролях: Руни Мара, Хоакин Феникс, Чиветел Эджиофор, Тахар Рахим, Ариана Лабед, Дени Меноше, Лубна Азабаль, Чеки Карио, Чарльз Бабалола, Тауфик Бархом

Перевод: Дублированный | Лицензия
Субтитры: Русские (форс., полные), английские (полные, SDH)
Реклама: Отсутствует

Описание: Рассказ об одной из самых загадочных личностей в мировой истории. Бросив вызов предрассудкам своего времени, Мария оставляет близких и присоединяется к группе единомышленников, лидером которых является Иисус из Назарета. Здесь она найдет свое место и окажется на судьбоносной дороге в Иерусалим.



Качество: BDRip-AVC
Продолжительность: 01:59:48

Формат: MKV
Видео кодек: MPEG-4 AVC
Аудио кодек: AC3
Видео: 1024x466 (2.2:1), 23,976 fps, x264 ~1 175 kbps avg, 0.103 bit/pixel
Аудио #1: 48 kHz, AC3 Dolby Digital, 3/2 (L,C,R,l,r) + LFE ch, ~448.00 kbps avg | RUS (Лицензия)
Аудио #2: 48 kHz, AC3 Dolby Digital, 3/2 (L,C,R,l,r) + LFE ch, ~448.00 kbps avg | ENG

Дата премьеры (мир): 26 февраля 2018
Дата премьеры (РФ): 5 апреля 2018, «UPI»


Релиз от: Rip by:
Общее
Уникальный идентификатор : 173092594253173512114109833881758938572 (0x82386BC96F0CBE5E89A994CAC21335CC)
Полное имя : F:OlLanDGroupMary.Magdalene.2018.BDRip(AVC).OlLanDGroup.mkv
Формат : Matroska
Версия формата : Version 4 / Version 2
Размер файла : 1,73 Гбайт
Продолжительность : 1 ч. 59 м.
Общий поток : 2073 Кбит/сек
Название фильма : Mary.Magdalene.2018 #TorpedoUK#
Дата кодирования : UTC 2018-07-12 18:36:06
Программа кодирования : mkvmerge v8.3.0 ('Over the Horizon') 64bit
Библиотека кодирования : libebml v1.3.1 + libmatroska v1.4.2

Видео
Идентификатор : 1
Формат : AVC
Формат/Информация : Advanced Video Codec
Профиль формата : High@L4.1
Параметр CABAC формата : Да
Параметр ReFrames формата : 10 кадров
Идентификатор кодека : V_MPEG4/ISO/AVC
Продолжительность : 1 ч. 59 м.
Битрейт : 1175 Кбит/сек
Ширина : 1024 пикселя
Высота : 466 пикселей
Соотношение сторон : 2,2:1
Режим частоты кадров : Постоянный
Частота кадров : 23,976 (24000/1001) кадра/сек
Цветовое пространство : YUV
Субдискретизация насыщенности : 4:2:0
Битовая глубина : 8 бит
Тип развёртки : Прогрессивная
Бит/(Пиксели*Кадры) : 0.103
Размер потока : 1007 Мбайт (57%)
Библиотека кодирования : x264 core 146 r2538 121396c
Настройки программы : cabac=1 / ref=10 / deblock=1:-3:-3 / analyse=0x3:0x113 / me=umh / subme=11 / psy=1 / psy_rd=0.99:0.04 / mixed_ref=1 / me_range=48 / chroma_me=1 / trellis=2 / 8x8dct=1 / cqm=0 / deadzone=21,11 / fast_pskip=1 / chroma_qp_offset=-3 / threads=6 / lookahead_threads=1 / sliced_threads=0 / nr=0 / decimate=1 / interlaced=0 / bluray_compat=0 / constrained_intra=0 / bframes=10 / b_pyramid=2 / b_adapt=2 / b_bias=0 / direct=3 / weightb=1 / open_gop=0 / weightp=2 / keyint=240 / keyint_min=23 / scenecut=40 / intra_refresh=0 / rc_lookahead=40 / rc=2pass / mbtree=1 / bitrate=1175 / ratetol=1.0 / qcomp=0.60 / qpmin=0 / qpmax=69 / qpstep=4 / cplxblur=20.0 / qblur=0.5 / vbv_maxrate=50000 / vbv_bufsize=62500 / nal_hrd=none / filler=0 / ip_ratio=1.40 / aq=1:1.00
Язык : English
Default : Да
Forced : Нет

Аудио #1
Идентификатор : 2
Формат : AC-3
Формат/Информация : Audio Coding 3
Расширение режима : CM (complete main)
Параметр Endianness формата : Big
Идентификатор кодека : A_AC3
Продолжительность : 1 ч. 59 м.
Вид битрейта : Постоянный
Битрейт : 448 Кбит/сек
Каналы : 6 каналов
Расположение каналов : Front: L C R, Side: L R, LFE
Частота : 48,0 КГц
Частота кадров : 31,250 кадров/сек (1536 spf)
Битовая глубина : 16 бит
Метод сжатия : С потерями
Размер потока : 384 Мбайт (22%)
Заголовок : License
Язык : Russian
Default : Да
Forced : Нет

Аудио #2
Идентификатор : 3
Формат : AC-3
Формат/Информация : Audio Coding 3
Расширение режима : CM (complete main)
Параметр Endianness формата : Big
Идентификатор кодека : A_AC3
Продолжительность : 1 ч. 59 м.
Вид битрейта : Постоянный
Битрейт : 448 Кбит/сек
Каналы : 6 каналов
Расположение каналов : Front: L C R, Side: L R, LFE
Частота : 48,0 КГц
Частота кадров : 31,250 кадров/сек (1536 spf)
Битовая глубина : 16 бит
Метод сжатия : С потерями
Размер потока : 384 Мбайт (22%)
Заголовок : Original
Язык : English
Default : Нет
Forced : Нет

Текст #1
Идентификатор : 4
Формат : UTF-8
Идентификатор кодека : S_TEXT/UTF8
Идентификатор кодека/Информация : UTF-8 Plain Text
Продолжительность : 1 ч. 57 м.
Битрейт : 1 бит/сек
Count of elements : 37
Размер потока : 1,69 Кбайт (0%)
Заголовок : Forced
Язык : Russian
Default : Да
Forced : Нет

Текст #2
Идентификатор : 5
Формат : UTF-8
Идентификатор кодека : S_TEXT/UTF8
Идентификатор кодека/Информация : UTF-8 Plain Text
Продолжительность : 1 ч. 58 м.
Битрейт : 40 бит/сек
Count of elements : 946
Размер потока : 35,1 Кбайт (0%)
Заголовок : Full
Язык : Russian
Default : Нет
Forced : Нет

Текст #3
Идентификатор : 6
Формат : UTF-8
Идентификатор кодека : S_TEXT/UTF8
Идентификатор кодека/Информация : UTF-8 Plain Text
Продолжительность : 1 ч. 50 м.
Битрейт : 29 бит/сек
Count of elements : 916
Размер потока : 24,1 Кбайт (0%)
Заголовок : Full
Язык : English
Default : Нет
Forced : Нет

Текст #4
Идентификатор : 7
Формат : UTF-8
Идентификатор кодека : S_TEXT/UTF8
Идентификатор кодека/Информация : UTF-8 Plain Text
Продолжительность : 1 ч. 58 м.
Битрейт : 32 бит/сек
Count of elements : 1071
Размер потока : 28,4 Кбайт (0%)
Заголовок : SDH
Язык : English
Default : Нет
Forced : Нет

Меню
00:00:00.000 : en:Chapter 1
00:06:50.076 : en:Chapter 2
00:12:28.289 : en:Chapter 3
00:19:45.642 : en:Chapter 4
00:23:35.747 : en:Chapter 5
00:31:02.402 : en:Chapter 6
00:37:16.609 : en:Chapter 7
00:44:48.435 : en:Chapter 8
00:50:57.846 : en:Chapter 9
00:55:42.756 : en:Chapter 10
01:01:55.837 : en:Chapter 11
01:09:28.330 : en:Chapter 12
01:13:55.013 : en:Chapter 13
01:16:31.336 : en:Chapter 14
01:24:27.562 : en:Chapter 15
01:29:15.516 : en:Chapter 16
01:33:58.799 : en:Chapter 17
01:39:33.801 : en:Chapter 18
01:44:51.368 : en:Chapter 19
01:53:24.798 : en:Chapter 20




 
Не забывайте говорить Спасибо. Не уходите с раздачи!   
Торрент: Зарегистрирован [12 июл 2018, 21:40] Скачать торрент
Скачать торрент
[ Размер 18.3 КБ / Просмотров 1 ]
Статус:
Проверен
 
.torrent скачан: 0 раз
Хэш: f4d7c170cd32cf36c3a5ad9a709c71201e395ea7
Размер: 1.73 ГБ (1 862 830 249 байт)
Стать Автором раздачи
 
 
Раздал: 100 ГБ
Скачал: 0 байт
Ратио: Seed.
Сообщения: 122307
Зарегистрирован: 09 апр 2015, 23:00


  • Похожие торренты
    Ответы
    Просмотры
    Последнее сообщение

Вернуться в Зарубежное кино

Ресурс не предоставляет электронные версии произведений, а занимается лишь коллекционированием и каталогизацией ссылок, присылаемых и публикуемых на форуме нашими читателями. Если вы являетесь правообладателем какого-либо представленного материала и не желаете чтобы ссылка на него находилась в нашем каталоге, свяжитесь с нами и мы незамедлительно удалим её. Файлы для обмена на трекере предоставлены пользователями сайта, и администрация не несёт ответственности за их содержание. Просьба не заливать файлы, защищенные авторскими правами, а также файлы нелегального содержания!
cron