Остров собак / Isle of Dogs (Уэс Андерсон / Wes Anderson ) [2018, США, Мультфильм, фэнтези, драма, комедия, приключения, BDRip, SD (480p)] DUB + Original + sub (rus, eng)

 
 Статистика раздачи 
Размер: 1.1 ГБ   |  Зарегистрирован: 12 июл 2018, 18:37   |   .torrent скачан: 0 раз
Сидеров: 1  [ 0 байт/сек ]     Личеров: 0  [ 0 байт/сек ]  
  

Остров собак / Isle of Dogs (Уэс Андерсон / Wes Anderson ) [2018, США, Мультфильм, фэнтези, драма, комедия, приключения, BDRip, SD (480p)] DUB + Original + sub (rus, eng)

Сообщение Nakazhu » 12 июл 2018, 21:46

Остров собак / Isle of Dogs

-
8.320 / 10 8.10 / 10
Год выпуска: 2018
Страна: США
Жанр: Мультфильм, фэнтези, драма, комедия, приключения
Продолжительность: 01:41:09
Перевод: Дублированный (iTunes)
Оригинальная аудиодорожка: Есть
Cубтитры: Русские, Английские
Режиссёр: Уэс Андерсон
Сценарий: Уэс Андерсон, Роман Коппола, Джейсон Шварцман
Продюсер: Бен Адлер, Уэс Андерсон, Эли Буш
Оператор: Тристан Оливер
Композитор: Александр Деспла
Художник: Пол Хэррод, Адам Штокхаузен, Курт Эндерле
Монтаж: Эдвард Бёрш, Ральф Фостер, Эндрю Вайсблум
В ролях: Брайан Крэнстон, Кою Ранкин, Эдвард Нортон, Боб Бэлабан, Билл Мюррей, Джефф Голдблюм, Кунъити Номура, Акира Такаяма, Грета Гервиг, Фрэнсис МакДорманд
Сборы в США: $31 914 239
Сборы в мире: + $30 906 087 = $62 820 326
Сборы в России: $597 243
Мировая премьера: 15 февраля 2018
Премьера (РФ): 3 мая 2018, «Двадцатый Век Фокс СНГ»
Релиз на DVD: 20 августа 2018, «НД Плэй»
Релиз на Blu-Ray: 20 августа 2018, «НД Плэй»
Цифровой релиз: 29 июня 2018, «Двадцатый Век Фокс СНГ»
Описание: История 12-летнего мальчика Атари Кобаяши, опекаемого коррумпированным мэром Кобаяши. Когда по Указу последнего все домашние собаки города Мегасаки изгоняются на громадную свалку, Атари в одиночку отправляется на миниатюрном летательном аппарате на мусорный остров, чтобы найти своего верного пса по прозвищу Спотс. Там на острове вместе со стаей новых друзей-дворняг он начнет эпичное путешествие, которое решит будущую судьбу всей Префектуры.
Качество исходника: BDRemux (BlueBird)
Качество: BDRip
Тип: SD (480p)
Контейнер: M4V
Видео: H.264, 640x356 анаморф 852х356, 2.40:1, 1300 Kbps, 23.976 (24000/1001) fps
Аудио 1: Русский/Дублированный (iTunes), AAC / 2.0 / 128 Kbps / 48.0 KHz
Аудио 2: Английский/Оригинальная дорожка , AAC / 2.0 / 128 Kbps / 48.0 KHz
Субтитры 1: Русские полные
Субтитры 2: Английские полные


Код:
Код: Выделить всё
Sort Name: Isle of Dogs
XID: Apple:vendor_id:2018-939785
contentID: 1363298490
Copyright: © 2018 Twentieth Century Fox Film Corporation. All rights reserved.
Screenwriters: Уэс Андерсон, Роман Коппола, Джейсон Шварцман
Producers: Бен Адлер, Уэс Андерсон, Эли Буш
Director: Уэс Андерсон
Cast: Брайан Крэнстон, Кою Ранкин, Эдвард Нортон, Боб Бэлабан, Билл Мюррей, Джефф Голдблюм, Кунъити Номура, Акира Такаяма, Грета Гервиг
Studio: Fox Searchlight
Rating: 4
Long Description: История 12-летнего мальчика Атари Кобаяши, опекаемого коррумпированным мэром Кобаяши. Когда по Указу последнего все домашние собаки города Мегасаки изгоняются на громадную свалку, Атари в одиночку отправляется на миниатюрном летательном аппарате на мусорный остров, чтобы найти своего верного пса по прозвищу Спотс. Там на острове вместе со стаей новых друзей-дворняг он начнет эпичное путешествие, которое решит будущую судьбу всей Префектуры.
Description: История 12-летнего мальчика Атари Кобаяши, опекаемого коррумпированным мэром Кобаяши. Когда по Указу последнего все домашние собаки города Мегасаки изгоняются на громадную свалку, Атари в одиночку отправляется на миниатюрном летательном аппарате на мусорный остров, чтобы найти своего верного пса по прозвищу Спотс.
Release Date: 2018-03-23T07:00:00Z
Genre: Comedy
Artist: Wes Anderson
Name: Isle of Dogs

Код:
Код: Выделить всё
General
Complete name : /Users/imac/HandBrake/Isle.of.Dogs.(480p).(pk).m4v
Format : MPEG-4
Codec ID : M4V
File size : 1.10 GiB
Duration : 1h 41mn
Overall bit rate mode : Variable
Overall bit rate : 1 557 Kbps
Movie name : Isle of Dogs
Performer : Wes Anderson
Director : Уэс Андерсон
Actor : Брайан Крэнстон / Кою Ранкин / Эдвард Нортон / Боб Бэлабан / Билл Мюррей / Джефф Голдблюм / Кунъити Номура / Акира Такаяма / Грета Гервиг
Screenplay by : Уэс Андерсон / Роман Коппола / Джейсон Шварцман
Producer : Бен Адлер / Уэс Андерсон / Эли Буш
Production studio : Fox Searchlight
Genre : Comedy
ContentType : Short Film
Description : История 12-летнего мальчика Атари Кобаяши, опекаемого коррумпированным мэром Кобаяши. Когда по Указу последнего все домашние собаки города Мегасаки изгоняются на громадную свалку, Атари в одиночку отправляется на миниатюрном летательном аппарате на мусорный остров, чтобы найти своего верного пса по прозвищу Спотс.
Recorded date : UTC 2018-03-23 07:00:00
Encoded date : UTC 2018-07-12 18:20:07
Tagged date : UTC 2018-07-12 18:26:00
Copyright : © 2018 Twentieth Century Fox Film Corporation. All rights reserved.
Cover : Yes
Rating : None
Title/Sort : Isle of Dogs
LongDescription : История 12-летнего мальчика Атари Кобаяши, опекаемого коррумпированным мэром Кобаяши. Когда по Указу последнего все домашние собаки города Мегасаки изгоняются на громадную свалку, Атари в одиночку отправляется на миниатюрном летательном аппарате на мусорный остров, чтобы найти своего верного пса по прозвищу Спотс. Там на острове вместе со стаей новых друзей-дворняг он начнет эпичное путешествие, которое решит будущую судьбу всей Префектуры.
AppleStoreCatalogID : 1363298490
Vendor : Apple:vendor_id:2018-939785
ContentRating : mpaa|PG-13|300|
Video #1
ID : 1
Format : AVC
Format/Info : Advanced Video Codec
Format profile : Baseline@L3
Format settings, CABAC : No
Format settings, ReFrames : 2 frames
Codec ID : avc1
Codec ID/Info : Advanced Video Coding
Duration : 1h 41mn
Bit rate : 1 300 Kbps
Width : 640 pixels
Height : 356 pixels
Display aspect ratio : 2.40:1
Frame rate mode : Variable
Frame rate : 23.976 fps
Minimum frame rate : 23.974 fps
Maximum frame rate : 23.981 fps
Color space : YUV
Chroma subsampling : 4:2:0
Bit depth : 8 bits
Scan type : Progressive
Bits/(Pixel*Frame) : 0.238
Stream size : 940 MiB (83%)
Title : Main Program
Writing library : x264 core 155 r2901 7d0ff22
Encoding settings : cabac=0 / ref=2 / deblock=1:0:0 / analyse=0x1:0x111 / me=umh / subme=6 / psy=1 / psy_rd=1.00:0.00 / mixed_ref=1 / me_range=16 / chroma_me=1 / trellis=0 / 8x8dct=0 / cqm=0 / deadzone=21,11 / fast_pskip=1 / chroma_qp_offset=-2 / threads=11 / lookahead_threads=1 / sliced_threads=0 / nr=0 / decimate=1 / interlaced=0 / bluray_compat=0 / constrained_intra=0 / bframes=0 / weightp=0 / keyint=240 / keyint_min=24 / scenecut=40 / intra_refresh=0 / rc_lookahead=40 / rc=2pass / mbtree=1 / bitrate=1300 / ratetol=1.0 / qcomp=0.60 / qpmin=0 / qpmax=69 / qpstep=4 / cplxblur=20.0 / qblur=0.5 / vbv_maxrate=5000 / vbv_bufsize=5000 / nal_hrd=none / filler=0 / ip_ratio=1.40 / aq=1:1.00
Language : English
Encoded date : UTC 2018-07-12 18:20:07
Tagged date : UTC 2018-07-12 18:20:12
Color range : Limited
Color primaries : BT.709
Transfer characteristics : BT.709
Matrix coefficients : BT.709
Video #2
ID : 7
Format : JPEG
Codec ID : jpeg
Duration : 1h 41mn
Bit rate mode : Variable
Bit rate : 1 273 bps
Width : 640 pixels
Height : 267 pixels
Display aspect ratio : 2.40:1
Frame rate mode : Variable
Frame rate : 0.004 fps
Minimum frame rate : 0.003 fps
Maximum frame rate : 0.007 fps
Color space : YUV
Chroma subsampling : 4:2:0
Bit depth : 8 bits
Compression mode : Lossy
Bits/(Pixel*Frame) : 1.862
Stream size : 932 KiB (0%)
Title : Chapter Images
Language : English
Encoded date : UTC 2018-07-12 18:20:29
Tagged date : UTC 2018-07-12 18:20:30
Audio #1
ID : 2
Format : AAC
Format/Info : Advanced Audio Codec
Format profile : LC
Codec ID : 40
Duration : 1h 41mn
Source duration : 1h 41mn
Bit rate mode : Variable
Bit rate : 125 Kbps
Maximum bit rate : 194 Kbps
Channel(s) : 2 channels
Channel positions : Front: L R
Sampling rate : 48.0 KHz
Compression mode : Lossy
Stream size : 90.3 MiB (8%)
Source stream size : 90.3 MiB (8%)
Title : Russian Stereo
Language : Russian
Encoded date : UTC 2018-07-12 18:20:08
Tagged date : UTC 2018-07-12 18:20:25
Audio #2
ID : 3
Format : AAC
Format/Info : Advanced Audio Codec
Format profile : LC
Codec ID : 40
Duration : 1h 41mn
Source duration : 1h 41mn
Bit rate mode : Variable
Bit rate : 125 Kbps
Maximum bit rate : 218 Kbps
Channel(s) : 2 channels
Channel positions : Front: L R
Sampling rate : 48.0 KHz
Compression mode : Lossy
Stream size : 90.7 MiB (8%)
Source stream size : 90.7 MiB (8%)
Title : English Stereo
Language : English
Encoded date : UTC 2018-07-12 18:20:08
Tagged date : UTC 2018-07-12 18:20:25
Text #1
ID : 4
Format : Timed Text
Muxing mode : sbtl
Codec ID : tx3g
Duration : 1h 34mn
Bit rate mode : Variable
Bit rate : 104 bps
Stream size : 72.3 KiB (0%)
Title : Russian full
Language : Russian
Encoded date : UTC 2018-07-12 18:20:08
Tagged date : UTC 2018-07-12 18:20:24
Text #2
ID : 5
Format : Timed Text
Muxing mode : sbtl
Codec ID : tx3g
Duration : 1h 34mn
Bit rate mode : Variable
Bit rate : 68 bps
Stream size : 47.1 KiB (0%)
Title : English full
Language : English
Encoded date : UTC 2018-07-12 18:20:08
Tagged date : UTC 2018-07-12 18:20:24
Menu #1
00:00:00.000 : 00:00:00.000
00:03:36.049 : 00:03:36.049
00:07:53.181 : 00:07:53.181
00:13:41.195 : 00:13:41.195
00:16:39.373 : 00:16:39.373
00:20:45.035 : 00:20:45.035
00:26:04.313 : 00:26:04.312
00:29:27.266 : 00:29:27.265
00:35:58.573 : 00:35:58.573
00:40:36.476 : 00:40:36.475
00:44:46.434 : 00:44:46.433
00:48:15.101 : 00:48:15.100
00:52:07.499 : 00:52:07.499
00:56:06.780 : 00:56:06.780
00:59:07.085 : 00:59:07.085
01:03:17.711 : 01:03:17.710
01:08:45.079 : 01:08:45.079
01:14:03.230 : 01:14:03.230
01:16:34.965 : 01:16:34.965
01:20:46.925 : 01:20:46.925
01:23:36.220 : 01:23:36.219
01:30:09.738 : 01:30:09.737
01:33:02.494 : 01:33:02.493
01:35:41.236 : 01:35:41.235
Menu #2
ID : 6
Codec ID : text
Duration : 1h 41mn
Language : English
Encoded date : UTC 2018-07-12 18:20:25
Tagged date : UTC 2018-07-12 18:20:25
Bit rate mode : CBR
00:00:00.000 : 00:00:00.000
00:03:36.049 : 00:03:36.049
00:07:53.181 : 00:07:53.181
00:13:41.195 : 00:13:41.195
00:16:39.373 : 00:16:39.373
00:20:45.035 : 00:20:45.035
00:26:04.313 : 00:26:04.312
00:29:27.266 : 00:29:27.265
00:35:58.573 : 00:35:58.573
00:40:36.476 : 00:40:36.475
00:44:46.434 : 00:44:46.433
00:48:15.101 : 00:48:15.100
00:52:07.499 : 00:52:07.499
00:56:06.780 : 00:56:06.780
00:59:07.085 : 00:59:07.085
01:03:17.711 : 01:03:17.710
01:08:45.079 : 01:08:45.079
01:14:03.230 : 01:14:03.230
01:16:34.965 : 01:16:34.965
01:20:46.925 : 01:20:46.925
01:23:36.220 : 01:23:36.219
01:30:09.738 : 01:30:09.737
01:33:02.494 : 01:33:02.493
01:35:41.236 : 01:35:41.235

Код:
Код: Выделить всё
x264 [info]: frame I:1481  Avg QP:13.23  size: 55349
x264 [info]: frame P:144049 Avg QP:15.45  size:  6276
x264 [info]: mb I  I16..4: 19.7%  0.0% 80.3%
x264 [info]: mb P  I16..4:  0.8%  0.0%  1.9%  P16..4: 34.0%  9.8%  5.3%  0.0%  0.0%    skip:48.3%
x264 [info]: coded y,uvDC,uvAC intra: 70.6% 79.2% 68.5% inter: 18.7% 14.7% 6.2%
x264 [info]: i16 v,h,dc,p: 61% 15% 11% 13%
x264 [info]: i4 v,h,dc,ddl,ddr,vr,hd,vl,hu: 33% 15% 12%  6%  7%  8%  6%  7%  6%
x264 [info]: i8c dc,h,v,p: 52% 18% 23%  6%
x264 [info]: ref P L0: 74.7% 25.3%
x264 [info]: kb/s:1299.51




Релиз подготовлен для просмотра на Apple TV, iPad, iPhone, iPod Touch.
Для просмотра данного релиза на компьютере с ОС Windows рекомендуется использовать VLC media player
 
Не забывайте говорить Спасибо. Не уходите с раздачи!   
Торрент: Зарегистрирован [12 июл 2018, 18:37] Для скачивания .torrent
необходима регистрация
Или скачать с помощью
MediaGet
Статус:
Проверен
 
.torrent скачан: 0 раз
Хэш: 5511e44f2e38df61b3623e12974b0b49f73029a1
Размер: 1.1 ГБ (1 181 569 780 байт)
Стать Автором раздачи
 
 
Раздал: 0 байт
Скачал: 0 байт
Ратио: Inf.
Сообщения: 487468
Зарегистрирован: 17 апр 2014, 13:57


  • Похожие торренты
    Ответы
    Просмотры
    Последнее сообщение

Вернуться в Мультфильмы для iPod, iPhone, iPad

Ресурс не предоставляет электронные версии произведений, а занимается лишь коллекционированием и каталогизацией ссылок, присылаемых и публикуемых на форуме нашими читателями. Если вы являетесь правообладателем какого-либо представленного материала и не желаете чтобы ссылка на него находилась в нашем каталоге, свяжитесь с нами и мы незамедлительно удалим её. Файлы для обмена на трекере предоставлены пользователями сайта, и администрация не несёт ответственности за их содержание. Просьба не заливать файлы, защищенные авторскими правами, а также файлы нелегального содержания!
cron