Драйв / Drive (1997) DVDRip-AVC от k.e.n & MegaPeer | P, P2, A

 
 Статистика раздачи 
Размер: 3.84 ГБ   |  Зарегистрирован: 12 июл 2018, 21:03   |   .torrent скачан: 0 раз
Сидеров: 1  [ 0 байт/сек ]     Личеров: 0  [ 0 байт/сек ]  
  

Драйв / Drive (1997) DVDRip-AVC от k.e.n & MegaPeer | P, P2, A

Сообщение Lester » 12 июл 2018, 21:19

Информация о фильме
Название: Драйв
Оригинальное название: Drive
Год выхода: 1997
Жанр: Фантастика, боевик, комедия, приключения
Режиссер: Стив Вонг
В ролях: Марк Дакаскос, Кадим Хардисон, Джон Пайпер-Фергюсон, Бриттани Мёрфи, Трейси Уолтер, Джеймс Шигета, Масая Като, Дом Магуили, Рон Йуан, Клив Розенгрен, Кристофер Майкл, Тед Смит, Тед Сзето, Р.А. Михайлофф, Дэвид Уоттс, СиСи Тсоу

О фильме:
Сан-Франциско. Недалекое будущее. Грузовое судно возвращается из Гонконга с загадочным пассажиром по имени Тоби Уонг. Он сбежал от подпольной корпорации Леунга в поисках свободы на Западе. Однако Тоби попадает в лапы банды хладнокровного Вика Мэдисона. Вырвавшись из банды Мэдисона, он берет в заложники пьяницу Малика Броунди и едет в Лос-Анджелес. В дороге они становятся приятелями, и Тоби даже обучает Малика боевым искусствам. Однажды Малик узнает, что у Тоби имплантирован биомодуль, дающий ему силу и скорость. Это сделал мистер Лау, глава корпорации Леунг, который хочет вернуть беглеца во что бы то ни стало. Сбежавшую парочку преследует и банда Вика Мэдисона и новая жертва мистер Лау с более совершенным биомодулем…


Страна: США
Студия: NEO Motion Pictures
Продолжительность: 01:52:45
Перевод: Профессиональный (многоголосый закадровый), профессиональный (двухголосый закадровый), авторский (одноголосый, закадровый)

Файл
Кодек: H.264
Качество: DVDRip-AVC
Видео: AVC, 1024x432 (2.35:1), 25 fps, 2 474 Kbps (0.224 bit/pixel)
Звук:
Аудио #1: AC-3, 48.0 KHz, 6 ch, 448 Kbps, CBR (Russian) - двухголосый, Twister
Аудио #2: AC-3, 48.0 KHz, 2 ch, 224 Kbps, CBR (Russian) - многоголосый, ОРТ
Аудио #3: AC-3, 48.0 KHz, 6 ch, 448 Kbps, CBR (Russian) - авторский, В.Горчаков
Аудио #4: AC-3, 48.0 KHz, 6 ch, 384 Kbps, CBR (Russian) - авторский, Ю.Живов
Аудио #5: AC-3, 48.0 KHz, 6 ch, 448 Kbps, CBR (Russian) - авторский, В.Котов
Аудио #6: AC-3, 48.0 KHz, 6 ch, 448 Kbps, CBR (English) - оригинал
Субтитры: русские

Скриншоты:


x264 [info]: frame I:1233 Avg QP:15.89 size: 47148 PSNR Mean Y:48.41 U:52.37 V:52.52 Avg:49.33 Global:48.68
x264 [info]: frame P:39586 Avg QP:18.69 size: 22423 PSNR Mean Y:46.37 U:51.16 V:51.25 Avg:47.38 Global:46.72
x264 [info]: frame B:128327 Avg QP:20.41 size: 8935 PSNR Mean Y:45.53 U:50.77 V:50.95 Avg:46.61 Global:45.60
Полное имя : D:ФИЛЬМЫДрайв.1997 (М.Дакаскос, К.Хардисон) .mkv
Формат : Matroska
Версия формата : Version 2
Размер файла : 3,84 Гбайт
Продолжительность : 1 ч. 52 м.
Общий поток : 4878 Кбит/сек
Название фильма : Драйв.(Режиссерская.версия).Drive.(Directors.cut).1997.DVDRip(AVC).CergMark
Дата кодирования : UTC 2018-07-01 18:43:16
Программа кодирования : mkvmerge v5.3.0 ('I could have danced') built on Feb 9 2012 10:38:07
Библиотека кодирования : libebml v1.2.3 + libmatroska v1.3.0
Attachments : poster.png

Видео
Идентификатор : 1
Формат : AVC
Формат/Информация : Advanced Video Codec
Профиль формата : High@L4.1
Параметр CABAC формата : Да
Параметр ReFrames формата : 12 кадров
Идентификатор кодека : V_MPEG4/ISO/AVC
Продолжительность : 1 ч. 52 м.
Битрейт : 2474 Кбит/сек
Ширина : 1024 пикселя
Высота : 432 пикселя
Соотношение сторон : 2,40:1
Режим частоты кадров : Постоянный
Частота кадров : 25,000 кадров/сек
Цветовое пространство : YUV
Субдискретизация насыщенности : 4:2:0
Битовая глубина : 8 бит
Тип развёртки : Прогрессивная
Бит/(Пиксели*Кадры) : 0.224
Размер потока : 1,88 Гбайт (49%)
Библиотека кодирования : x264 core 146 r2538 121396c
Настройки программы : cabac=1 / ref=12 / deblock=1:-3:-3 / analyse=0x3:0x133 / me=umh / subme=11 / psy=1 / psy_rd=1.00:0.15 / mixed_ref=1 / me_range=32 / chroma_me=1 / trellis=2 / 8x8dct=1 / cqm=0 / deadzone=21,11 / fast_pskip=0 / chroma_qp_offset=-3 / threads=12 / lookahead_threads=3 / sliced_threads=0 / nr=0 / decimate=0 / interlaced=0 / bluray_compat=0 / constrained_intra=0 / bframes=12 / b_pyramid=2 / b_adapt=2 / b_bias=0 / direct=3 / weightb=1 / open_gop=0 / weightp=2 / keyint=250 / keyint_min=25 / scenecut=40 / intra_refresh=0 / rc=2pass / mbtree=0 / bitrate=2474 / ratetol=1.0 / qcomp=0.60 / qpmin=0 / qpmax=69 / qpstep=4 / cplxblur=20.0 / qblur=0.5 / ip_ratio=1.40 / pb_ratio=1.30 / aq=3:0.80
Язык : English
Default : Да
Forced : Нет

Аудио #1
Идентификатор : 2
Формат : AC-3
Формат/Информация : Audio Coding 3
Расширение режима : CM (complete main)
Параметр Endianness формата : Big
Идентификатор кодека : A_AC3
Продолжительность : 1 ч. 52 м.
Вид битрейта : Постоянный
Битрейт : 448 Кбит/сек
Каналы : 6 каналов
Расположение каналов : Front: L C R, Side: L R, LFE
Частота : 48,0 КГц
Частота кадров : 31,250 кадров/сек (1536 spf)
Битовая глубина : 16 бит
Метод сжатия : С потерями
Размер потока : 361 Мбайт (9%)
Заголовок : Двухголосый (Twister)
Язык : Russian
Default : Да
Forced : Нет

Аудио #2
Идентификатор : 3
Формат : AC-3
Формат/Информация : Audio Coding 3
Расширение режима : CM (complete main)
Параметр Endianness формата : Big
Идентификатор кодека : A_AC3
Продолжительность : 1 ч. 52 м.
Вид битрейта : Постоянный
Битрейт : 224 Кбит/сек
Каналы : 2 канала
Расположение каналов : Front: L R
Частота : 48,0 КГц
Частота кадров : 31,250 кадров/сек (1536 spf)
Битовая глубина : 16 бит
Метод сжатия : С потерями
Размер потока : 181 Мбайт (5%)
Заголовок : Многоголосый (ОРТ)
Язык : Russian
Default : Нет
Forced : Нет

Аудио #3
Идентификатор : 4
Формат : AC-3
Формат/Информация : Audio Coding 3
Расширение режима : CM (complete main)
Параметр Endianness формата : Big
Идентификатор кодека : A_AC3
Продолжительность : 1 ч. 52 м.
Вид битрейта : Постоянный
Битрейт : 448 Кбит/сек
Каналы : 6 каналов
Расположение каналов : Front: L C R, Side: L R, LFE
Частота : 48,0 КГц
Частота кадров : 31,250 кадров/сек (1536 spf)
Битовая глубина : 16 бит
Метод сжатия : С потерями
Размер потока : 361 Мбайт (9%)
Заголовок : Авторский В.Горчаков
Язык : Russian
Default : Нет
Forced : Нет

Аудио #4
Идентификатор : 5
Формат : AC-3
Формат/Информация : Audio Coding 3
Расширение режима : CM (complete main)
Параметр Endianness формата : Big
Идентификатор кодека : A_AC3
Продолжительность : 1 ч. 52 м.
Вид битрейта : Постоянный
Битрейт : 384 Кбит/сек
Каналы : 6 каналов
Расположение каналов : Front: L C R, Side: L R, LFE
Частота : 48,0 КГц
Частота кадров : 31,250 кадров/сек (1536 spf)
Битовая глубина : 16 бит
Метод сжатия : С потерями
Размер потока : 310 Мбайт (8%)
Заголовок : Авторский Ю.Живов
Язык : Russian
Default : Нет
Forced : Нет

Аудио #5
Идентификатор : 6
Формат : AC-3
Формат/Информация : Audio Coding 3
Расширение режима : CM (complete main)
Параметр Endianness формата : Big
Идентификатор кодека : A_AC3
Продолжительность : 1 ч. 52 м.
Вид битрейта : Постоянный
Битрейт : 448 Кбит/сек
Каналы : 6 каналов
Расположение каналов : Front: L C R, Side: L R, LFE
Частота : 48,0 КГц
Частота кадров : 31,250 кадров/сек (1536 spf)
Битовая глубина : 16 бит
Метод сжатия : С потерями
Размер потока : 361 Мбайт (9%)
Заголовок : Авторский В.Котов
Язык : Russian
Default : Нет
Forced : Нет

Аудио #6
Идентификатор : 7
Формат : AC-3
Формат/Информация : Audio Coding 3
Расширение режима : CM (complete main)
Параметр Endianness формата : Big
Идентификатор кодека : A_AC3
Продолжительность : 1 ч. 52 м.
Вид битрейта : Постоянный
Битрейт : 448 Кбит/сек
Каналы : 6 каналов
Расположение каналов : Front: L C R, Side: L R, LFE
Частота : 48,0 КГц
Частота кадров : 31,250 кадров/сек (1536 spf)
Битовая глубина : 16 бит
Метод сжатия : С потерями
Размер потока : 361 Мбайт (9%)
Заголовок : Оригинал
Язык : English
Default : Нет
Forced : Нет

Текст
Идентификатор : 8
Формат : UTF-8
Идентификатор кодека : S_TEXT/UTF8
Идентификатор кодека/Информация : UTF-8 Plain Text
Язык : Russian
Default : Нет
Forced : Нет

Меню
00:00:00.000 : en:Chapter 1
00:02:05.400 : en:Chapter 2
00:04:21.360 : en:Chapter 3
00:08:56.880 : en:Chapter 4
00:13:40.200 : en:Chapter 5
00:16:02.280 : en:Chapter 6
00:20:16.200 : en:Chapter 7
00:24:52.320 : en:Chapter 8
00:29:08.760 : en:Chapter 9
00:35:59.520 : en:Chapter 10
00:39:19.920 : en:Chapter 11
00:44:58.080 : en:Chapter 12
00:49:50.640 : en:Chapter 13
00:53:48.120 : en:Chapter 14
00:58:24.000 : en:Chapter 15
01:03:02.160 : en:Chapter 16
01:07:24.600 : en:Chapter 17
01:11:38.040 : en:Chapter 18
01:16:41.880 : en:Chapter 19
01:21:05.040 : en:Chapter 20
01:25:24.120 : en:Chapter 21
01:30:01.920 : en:Chapter 22
01:34:34.920 : en:Chapter 23
01:38:53.160 : en:Chapter 24
01:43:31.680 : en:Chapter 25
01:46:55.800 : en:Chapter 26


Релиз: &
 
Не забывайте говорить Спасибо. Не уходите с раздачи!   
Торрент: Зарегистрирован [12 июл 2018, 21:03] Для скачивания .torrent
необходима регистрация
Или скачать с помощью
MediaGet
Статус:
Проверен
 
.torrent скачан: 0 раз
Хэш: 604e924b3dc27c7526a5b6f9c445b8b79112d8ff
Размер: 3.84 ГБ (4 125 623 556 байт)
Стать Автором раздачи
 
 
Раздал: 100 ГБ
Скачал: 0 байт
Ратио: Seed.
Сообщения: 117767
Зарегистрирован: 09 апр 2015, 23:00


  • Похожие торренты
    Ответы
    Просмотры
    Последнее сообщение

Вернуться в Зарубежное кино

Ресурс не предоставляет электронные версии произведений, а занимается лишь коллекционированием и каталогизацией ссылок, присылаемых и публикуемых на форуме нашими читателями. Если вы являетесь правообладателем какого-либо представленного материала и не желаете чтобы ссылка на него находилась в нашем каталоге, свяжитесь с нами и мы незамедлительно удалим её. Файлы для обмена на трекере предоставлены пользователями сайта, и администрация не несёт ответственности за их содержание. Просьба не заливать файлы, защищенные авторскими правами, а также файлы нелегального содержания!
cron