Провал во времени / Retroactive (1997) HDRip-AVC от ExKinoRay | P, P2

 
 Статистика раздачи 
Размер: 746.02 МБ   |  Зарегистрирован: 12 июл 2018, 19:33   |   .torrent скачан: 0 раз
Сидеров: 1  [ 0 байт/сек ]     Личеров: 0  [ 0 байт/сек ]  
  

Провал во времени / Retroactive (1997) HDRip-AVC от ExKinoRay | P, P2

Сообщение Lester » 12 июл 2018, 20:37

Информация о фильме
Название: Провал во времени
Оригинальное название: Retroactive
Год выпуска: 1997
Жанр: Фантастика, триллер, криминал, приключения
Режиссер: Луис Морно
В ролях: Джеймс Белуши, Кайли Трэвис, Шэннон Уирри, Фрэнк Уэйли, Джесси Боррего, М. Эммет Уолш, Шерман Ховард, Гай Бойд, Кристина Коггинс, Робби Тибо мл.

О фильме :
Оставшись без автомобиля в результате небольшой аварии, Карен садится в машину к водителю Фрэнку и его жене Райан, чтобы добраться до города. На ближайшей автозаправке Фрэнк ссорится с человеком и пускает в ход оружие, пытаясь убить заодно и всех присутствующих как свидетелей. Карен в испуге бежит к ближайшему зданию и попадает в лабораторию ученого, который проводит эксперимент по перемещению во времени. Карен удается попасть в прошлое, когда эти кровавые события еще не начались. Девушка несколько раз пытается переместиться, чтобы предотвратить трагедию на заправке, но у нее ничего не получается, так как у нее очень маленький временной промежуток - всего 20 минут, а с каждым разом ситуация приобретает все более мрачные обороты...



Выпущено: США, Cohiba Pictures, Orion Pictures Entertainment, Scanbox Entertainment
Продолжительность: 01:30:59
Перевод: Профессиональный многоголосый, профессиональный двухголосый

Файл
Формат: MKV
Качество: HDRip-AVC
Видео: MPEG-4 AVC, 800x340, ~ 992 Кбит/с
Аудио 1: AAC-HE, 2 ch, ~ 76 Кбит/с | MVO, «СТС»
Аудио 2: AAC-HE, 2 ch, ~ 76 Кбит/с | DVO, «НТВ+»
Субтитры: Русские, английские

Общее
Уникальный идентификатор : 193762927057204901041787981026553577270 (0x91C561E095FE5EBD8DEA99BDA59D3F36)
Полное имя : D:MOVIESRetroactive.1997.ExKinoRay.mkv
Формат : Matroska
Версия формата : Version 4 / Version 2
Размер файла : 746 Мбайт
Продолжительность : 1 ч. 30 м.
Общий поток : 1146 Кбит/сек
Дата кодирования : UTC 2018-07-12 15:54:31
Программа кодирования : mkvmerge v15.0.0 ('Duel with the Devil') 64-bit
Библиотека кодирования : libebml v1.3.5 + libmatroska v1.4.5

Видео
Идентификатор : 1
Формат : AVC
Формат/Информация : Advanced Video Codec
Профиль формата : High@L4.1
Параметр CABAC формата : Да
Параметр RefFrames формата : 10 кадров
Идентификатор кодека : V_MPEG4/ISO/AVC
Продолжительность : 1 ч. 30 м.
Битрейт : 992 Кбит/сек
Ширина : 800 пикселей
Высота : 340 пикселей
Соотношение сторон : 2,35:1
Режим частоты кадров : Постоянный
Частота кадров : 23,976 (24000/1001) кадра/сек
Цветовое пространство : YUV
Субдискретизация насыщенности : 4:2:0
Битовая глубина : 8 бит
Тип развёртки : Прогрессивная
Бит/(Пиксели*Кадры) : 0.152
Размер потока : 646 Мбайт (87%)
Библиотека кодирования : x264 core 152 r2851kMod ba24899
Настройки программы : cabac=1 / ref=10 / deblock=1:-3:-3 / analyse=0x3:0x133 / me=umh / subme=11 / psy=1 / fade_compensate=0.00 / psy_rd=1.00:0.15 / mixed_ref=1 / me_range=32 / chroma_me=1 / trellis=2 / 8x8dct=1 / cqm=0 / deadzone=21,11 / fast_pskip=0 / chroma_qp_offset=-3 / threads=6 / lookahead_threads=1 / sliced_threads=0 / nr=0 / decimate=0 / interlaced=0 / bluray_compat=0 / constrained_intra=0 / bframes=10 / b_pyramid=2 / b_adapt=2 / b_bias=0 / direct=3 / weightb=1 / open_gop=0 / weightp=2 / keyint=240 / keyint_min=23 / scenecut=40 / intra_refresh=0 / rc_lookahead=40 / rc=2pass / mbtree=1 / bitrate=992 / ratetol=1.0 / qcomp=0.60 / qpmin=0 / qpmax=69 / qpstep=4 / cplxblur=20.0 / qblur=0.5 / vbv_maxrate=50000 / vbv_bufsize=62500 / nal_hrd=none / filler=0 / ip_ratio=1.40 / aq=3:1.00
Default : Да
Forced : Нет

Аудио #1
Идентификатор : 2
Формат : AAC
Формат/Информация : Advanced Audio Codec
Профиль формата : HE-AAC / LC
Идентификатор кодека : A_AAC
Продолжительность : 1 ч. 30 м.
Битрейт : 76,0 Кбит/сек
Каналы : 2 канала
Расположение каналов : Front: L R
Частота : 48,0 КГц / 24,0 КГц
Частота кадров : 23,438 кадра/сек (1024 SPF)
Метод сжатия : С потерями
Задержка видео : 31 мс.
Размер потока : 49,5 Мбайт (7%)
Язык : Russian
Default : Да
Forced : Нет

Аудио #2
Идентификатор : 3
Формат : AAC
Формат/Информация : Advanced Audio Codec
Профиль формата : HE-AAC / LC
Идентификатор кодека : A_AAC
Продолжительность : 1 ч. 30 м.
Битрейт : 76,0 Кбит/сек
Каналы : 2 канала
Расположение каналов : Front: L R
Частота : 48,0 КГц / 24,0 КГц
Частота кадров : 23,438 кадра/сек (1024 SPF)
Метод сжатия : С потерями
Задержка видео : 31 мс.
Размер потока : 49,5 Мбайт (7%)
Язык : Russian
Default : Нет
Forced : Нет

Текст #1
Идентификатор : 4
Формат : UTF-8
Идентификатор кодека : S_TEXT/UTF8
Идентификатор кодека/Информация : UTF-8 Plain Text
Продолжительность : 1 ч. 24 м.
Битрейт : 85 бит/сек
ElementCount : 894
Размер потока : 52,9 Кбайт (0%)
Язык : Russian
Default : Нет
Forced : Нет

Текст #2
Идентификатор : 5
Формат : UTF-8
Идентификатор кодека : S_TEXT/UTF8
Идентификатор кодека/Информация : UTF-8 Plain Text
Продолжительность : 1 ч. 23 м.
Битрейт : 54 бит/сек
ElementCount : 899
Размер потока : 33,0 Кбайт (0%)
Язык : English
Default : Нет
Forced : Нет

Меню
00:00:00.000 : :Chapter 01
00:06:46.948 : :Chapter 02
00:08:56.161 : :Chapter 03
00:12:21.156 : :Chapter 04
00:18:19.682 : :Chapter 05
00:23:28.073 : :Chapter 06
00:31:17.209 : :Chapter 07
00:38:54.332 : :Chapter 08
00:45:28.141 : :Chapter 09
00:49:14.785 : :Chapter 10
00:54:08.536 : :Chapter 11
01:01:34.316 : :Chapter 12
01:09:13.566 : :Chapter 13
01:16:24.455 : :Chapter 14
01:20:28.240 : :Chapter 15
01:26:57.462 : :Chapter 16



Релиз от:
 
Не забывайте говорить Спасибо. Не уходите с раздачи!   
Торрент: Зарегистрирован [12 июл 2018, 19:33] Для скачивания .torrent
необходима регистрация
Или скачать с помощью
MediaGet
Статус:
Проверен
 
.torrent скачан: 0 раз
Хэш: e4ebb751115372b6d05c77e125ae2133378aede5
Размер: 746.02 МБ (782 260 505 байт)
Стать Автором раздачи
 
 
Раздал: 100 ГБ
Скачал: 0 байт
Ратио: Seed.
Сообщения: 117767
Зарегистрирован: 09 апр 2015, 23:00


  • Похожие торренты
    Ответы
    Просмотры
    Последнее сообщение

Вернуться в Зарубежное кино

Ресурс не предоставляет электронные версии произведений, а занимается лишь коллекционированием и каталогизацией ссылок, присылаемых и публикуемых на форуме нашими читателями. Если вы являетесь правообладателем какого-либо представленного материала и не желаете чтобы ссылка на него находилась в нашем каталоге, свяжитесь с нами и мы незамедлительно удалим её. Файлы для обмена на трекере предоставлены пользователями сайта, и администрация не несёт ответственности за их содержание. Просьба не заливать файлы, защищенные авторскими правами, а также файлы нелегального содержания!
cron