Призраки Исмаэля / Les fantômes d'Ismaël (Арно Деплешен / Arnaud Desplechin) [2017, Франция, триллер, драма, мелодрама, BDRip] [Режиссёрская версия / Director's cut] MVO (iTunes) + вставки AVO (Карповский)

 
 Статистика раздачи 
Размер: 1.46 ГБ   |  Зарегистрирован: 12 июл 2018, 16:42   |   .torrent скачан: 0 раз
Сидеров: 1  [ 0 байт/сек ]     Личеров: 0  [ 0 байт/сек ]  
  

Призраки Исмаэля / Les fantômes d'Ismaël (Арно Деплешен / Arnaud Desplechin) [2017, Франция, триллер, драма, мелодрама, BDRip] [Режиссёрская версия / Director's cut] MVO (iTunes) + вставки AVO (Карповский)

Сообщение Nakazhu » 12 июл 2018, 19:57

Призраки Исмаэля / Les fantômes d'Ismaël
Страна: Франция
Студия: Why Not Productions, France 2 Cinéma, Canal+, Ciné+
Жанр: Триллер, драма, мелодрама
Год выпуска: 2017
Продолжительность: 02:14:34
Перевод: Профессиональный (многоголосый закадровый) - Студия Позитив лицензия iTunes + Вставки Авторского (одноголосого закадрового) Антон Карповский
Субтитры: нет
Оригинальная аудиодорожка: нет
Режиссер: Арно Деплешен / Arnaud Desplechin
В ролях: Матьё Амальрик, Марион Котийяр, Шарлотта Генсбур, Луи Гаррель, Альба Рорвахер, Ласло Сабо, Ипполит Жирардо, Жак Ноло, Катрин Муше, Самир Гесми, Мелоди Ричард, Марк Прин, Бруно Тодескини, Паскаль Тернизьен, Филипп Фретюн, Бернард Блох, Гийом Бриа, Марк Берман
Описание: Жизнь режиссера Исмаэля Виллара сложна и запутана как сюжет шпионского триллера, над созданием которого он долго и мучительно работает. Из творческого кризиса Исмаэль не выходил с того дня, как бесследно исчезла его жена Карлотта. Многолетние поиски пропавшей не дали никаких результатов и ему с большим трудом, но все же пришлось смириться с потерей любимой. После долгих лет неведения, душевных страданий и одиночества рядом с ним появилась другая женщина – Сильвия, с которой он прожил два относительно счастливых и спокойных года. Неожиданное возвращение отсутствовавшей двадцать лет супруги поставило под угрозу не только его отношения с Сильвией, но и судьбу многострадального фильма...
Дополнительная информация:
Автор релиза -
Исходник для рипа - BluRay (FRA) - Les.Fantômes.d'Ismael.2017.1080p.Blu-ray.AVC.DTS-HD.MA.5.1-Blackbird
Фильм вышел на BD в режиссёрской версии, которая на 20 минут длиннее театральной - 6 дополнительных сцен - на этих участках перевод авторский одноголосый (Антон Карповский):
00:10:17-00:10:27
01:03:11-01:03:14
01:09:55-01:17:27
01:31:43-01:35:31
01:39:16-01:47:30
01:49:57-01:51:13
Заказ перевода у Антона Карповского (июль 2018) - ylnian
За сборку дороги спасибо rammzez
За описание к фильму спасибо dushevnaya
Рекламы нет!


Сэмпл: https://yadi.sk/i/ggwNBR2o3Z6jpD
Качество видео: BDRip
Формат видео: AVI
Видео: XviD, 720x304 (2,35:1), 23.976 fps, 1160 kbps, 0.221 bit/pixel
Аудио: Русский AC3, 48000 Гц, 6ch, 384 kbps
Код: Выделить всё
Общее
Полное имя                               : D:\Les.fantomes.d'Ismael.director's.2017.BDRip-ylnian.avi
Формат                                   : AVI
Формат/Информация                        : Audio Video Interleave
Размер файла                             : 1,46 Гбайт
Продолжительность                        : 2 ч. 14 м.
Общий поток                              : 1553 Кбит/сек
Программа кодирования                    : VirtualDubMod 1.5.10.3 | www.virtualdub-fr.org || (build 2550/release)
Библиотека кодирования                   : VirtualDubMod build 2550/release
Видео
Идентификатор                            : 0
Формат                                   : MPEG-4 Visual
Профиль формата                          : Advanced Simple@L5
Настройки формата                        : BVOP1
Параметр BVOP формата                    : 1
Параметр QPel формата                    : Нет
Параметр GMC формата                     : Без точки перехода
Параметр матрицы формата                 : Default (MPEG)
Идентификатор кодека                     : XVID
Идентификатор кодека/Подсказка           : XviD
Продолжительность                        : 2 ч. 14 м.
Битрейт                                  : 1160 Кбит/сек
Ширина                                   : 720 пикселей
Высота                                   : 304 пикселя
Соотношение сторон                       : 2,35:1
Частота кадров                           : 23,976 (24000/1001) кадра/сек
Цветовое пространство                    : YUV
Субдискретизация насыщенности            : 4:2:0
Битовая глубина                          : 8 бит
Тип развёртки                            : Прогрессивная
Метод сжатия                             : С потерями
Бит/(Пиксели*Кадры)                      : 0.221
Размер потока                            : 1,09 Гбайт (75%)
Библиотека кодирования                   : XviD 67
Аудио
Идентификатор                            : 1
Формат                                   : AC-3
Формат/Информация                        : Audio Coding 3
Идентификатор кодека                     : 2000
Продолжительность                        : 2 ч. 14 м.
Вид битрейта                             : Постоянный
Битрейт                                  : 384 Кбит/сек
Каналы                                   : 6 каналов
Расположение каналов                     : Front: L C R, Side: L R, LFE
Частота                                  : 48,0 КГц
Частота кадров                           : 31,250 кадров/сек (1536 SPF)
Битовая глубина                          : 16 бит
Метод сжатия                             : С потерями
Размер потока                            : 370 Мбайт (25%)
Выравнивание                             : Разделение по промежуткам
Продолжительность промежутка             : 42  мс. (1,00 видеокадр)
Время предзагрузки промежутка            : 500  мс.
Заголовок                                : MVO+AVO
ServiceKind/String                       : Complete Main
 
Не забывайте говорить Спасибо. Не уходите с раздачи!   
Торрент: Зарегистрирован [12 июл 2018, 16:42] Скачать торрент
Скачать торрент
[ Размер 15.08 КБ / Просмотров 2 ]
Статус:
Проверен
 
.torrent скачан: 0 раз
Хэш: c32f7390115d13a628149ced73e6fc0d8292cee6
Размер: 1.46 ГБ (1 567 770 624 байт)
Стать Автором раздачи
 
 
Раздал: 0 байт
Скачал: 0 байт
Ратио: Inf.
Сообщения: 487468
Зарегистрирован: 17 апр 2014, 13:57


  • Похожие торренты
    Ответы
    Просмотры
    Последнее сообщение

Вернуться в Зарубежное кино

Ресурс не предоставляет электронные версии произведений, а занимается лишь коллекционированием и каталогизацией ссылок, присылаемых и публикуемых на форуме нашими читателями. Если вы являетесь правообладателем какого-либо представленного материала и не желаете чтобы ссылка на него находилась в нашем каталоге, свяжитесь с нами и мы незамедлительно удалим её. Файлы для обмена на трекере предоставлены пользователями сайта, и администрация не несёт ответственности за их содержание. Просьба не заливать файлы, защищенные авторскими правами, а также файлы нелегального содержания!
cron